<?xml version="1.0" standalone="no"?>
<!DOCTYPE svg PUBLIC "-//W3C//DTD SVG 1.1//EN" "http://www.w3.org/Graphics/SVG/1.1/DTD/svg11.dtd" >
<svg xmlns="http://www.w3.org/2000/svg">
<metadata>
<json>
<![CDATA[
{
	"fontFamily": "ncdsi-201",
	"majorVersion": 2,
	"minorVersion": 1,
	"designerURL": "http://nickcatesdesign.com",
	"copyright": "Copyright (c) Nick Cates Design, 2014. All rights reserved.",
	"description": "Nick Cates Design - Social Icons\nFont generated by IcoMoon.",
	"fontURL": "http://nickcatesdesign.com",
	"version": "Version 2.1",
	"fontId": "ncdsi-201",
	"psName": "ncdsi-201",
	"subFamily": "Regular",
	"fullName": "ncdsi-201"
}
]]>
</json>
</metadata>
<defs>
<font id="ncdsi-201" horiz-adv-x="512">
<font-face units-per-em="512" ascent="480" descent="-32" />
<missing-glyph horiz-adv-x="512" />
<glyph unicode="&#x20;" horiz-adv-x="256" d="" />
<glyph unicode="&#xe600;" glyph-name="strava" data-tags="strava" d="M284.212 186.834c-21.527 38.162-41.009 78.368-61.016 118.052-20.699-38.99-39.885-79.493-60.352-118.715h-88.871c42.407 86.089 87.18 171.418 129.989 257.99 6 12.133 11.325 24.765 19.234 35.813 49.12-98.331 99.602-195.313 149.223-293.14h65.658c-35.706-73.723-73.671-145.191-109.43-218.86-37.572 72.077-76.49 146.351-111.419 218.86 17.119-0.207 43.673 0.146 64.994 0 15.361-29.074 30.382-58.488 45.099-88.207 15.891 28.544 29.619 59.252 45.099 88.207h-88.207z" />
<glyph unicode="&#xe601;" glyph-name="facebook" data-tags="facebook" d="M482.432 478.635h-455.478c-15.611 0-28.256-12.645-28.256-28.262v-455.478c0-15.616 12.646-28.26 28.256-28.26h245.216v198.27h-66.726v77.269h66.726v56.986c0 66.128 40.389 102.139 99.382 102.139 28.255 0 52.543-2.101 59.627-3.046v-69.109l-40.923-0.016c-32.080-0.016-38.293-15.237-38.293-37.622v-49.334h76.517l-9.957-77.269h-66.56v-198.27h130.47c15.605 0 28.254 12.643 28.254 28.26v455.478c0 15.616-12.649 28.262-28.254 28.262z" />
<glyph unicode="&#xe602;" glyph-name="newsvine" data-tags="newsvine" d="M203.733 157.383c0 0.494 0 1.233 0.245 2.221 0.244 0.983 0.335 2.715 0.244 4.931-0.648 16.035-17.263 28.367-32.804 28.367-16.030 0-30.828-15.047-30.828-31.821 0-16.030 13.556-31.345 30.339-31.817 9.613-0.272 9.618-0.738 17.263 4.437l54.51-38.229v-89.040h27.624v29.35l53.032 36.997c3.204-1.233 5.425-2.216 6.907-3.449 1.478-1.238 4.931-1.727 10.356-1.727 6.168 0 13.815 3.204 19.978 8.63 6.168 5.43 10.854 13.075 10.854 23.187 0 19.484-15.048 31.817-31.817 31.817-8.139 0-15.849-2.896-21.704-8.63-5.983-5.861-10.116-13.57-10.116-21.709 0-2.711 0-4.192 0.25-4.931 0.245-0.739 0.494-1.971 0.738-3.699l-38.973-26.641v88.796l53.526 36.503c1.478-0.245 2.71-0.738 3.454-1.233 0.738-0.494 1.727-0.988 2.71-1.478 1.976-1.238 4.935-2.161 10.116-1.976 15.546 0.558 31.817 12.332 31.817 32.31 0 18.5-13.32 31.327-30.833 31.327-19.484 0-33.298-16.035-33.298-29.6 0-6.164 0.25-6.413 0.988-9.618l-38.479-26.885v87.808l53.526 37.491c3.698-0.738 6.413-1.482 8.14-2.715s5.171-1.301 10.606-1.233c14.059 0.176 29.351 14.309 29.351 31.82 0 19.484-14.798 31.817-32.31 31.817-14.803 0-31.327-11.838-31.327-31.817v-4.935c0-0.739 0-1.233 0.25-1.478 0.245-0.249 0.245-0.249 0.245-0.494v-1.727l-38.479-26.391v139.602h-27.624v-78.435l-37.984 26.885c0 2.221 0 3.698 0.25 4.192 0.245 0.494 0.512 2.969 0.245 7.401-0.965 16.048-18.496 28.118-33.298 28.118-16.769 0-30.828-14.308-30.828-31.817 0-16.035 14.304-30.833 30.339-30.833 2.71 0 4.686 0.226 6.409 0.494 1.487 0.226 2.715 0.245 3.947 0.494 1.232 0.245 2.226 0.467 3.453 0.739 0.993 0.222 2.221 0.739 3.947 0.988l53.521-36.507v-87.314l-39.462 24.17c0.244 2.221 0.738 3.454 1.233 4.197 0.494 0.49 0.897 2.96 0.738 7.397-0.585 16.534-17.513 30.339-32.31 30.339-17.512 0-31.816-16.28-31.816-33.792 0-8.878 4.192-17.018 10.111-22.199 5.919-5.176 13.815-9.124 19.733-9.124l0.494 0.494c2.71 0 4.686 0.244 6.409 0.489 2.964 0.743 4.673 1.758 6.907 2.964 0.974 0.521 2.22 0.983 3.947 1.722l54.016-38.474v-86.82l-38.969 26.142c0 0.988 0 1.727 0.245 2.221 0.25 0.494 0.25 0.988 0.25 1.727z" />
<glyph unicode="&#xe603;" glyph-name="yelp" data-tags="yelp" d="M241.645 127.175c-3.862-0.112-8.892-2.075-14.524-5.632l-85.088-75.897c-8.599-10.966-11.564-12.748-11.564-24.307 0-10.382 14.513-22.279 39.434-31.426 13.025-4.786 21.971-9.428 29.347-13.344 7.148-3.788 13.339-7.112 22.53-8.007 0.891-0.291 1.782-0.588 2.966-0.588 10.971 0 17.197 6.82 21.048 20.752l10.972 117.7c-0.298 5.632-1.109 9.814-2.374 12.45-2.293 4.779-6.524 8.486-12.748 8.3zM434.65 108.793l-103.175 40.319c-10.966 2.374-25.197 2.966-30.83-3.259-1.483-2.075-2.374-4.742-2.374-8.3 0-3.856 0.592-8.305 1.782-13.346l52.769-102.871c6.224-9.491 13.639-13.638 19.272-14.528h2.667c8.599 0 16.012 3.855 22.238 11.263 6.224 7.414 12.828 14.753 19.565 22.238 14.61 16.231 31.428 32.911 32.911 45.061v2.966c0 11.858-6.822 15.714-14.823 20.455zM204.59 163.053c4.475 1.055 8.625 3.227 12.45 6.224 7.143 5.595 7.756 13.986 3.558 17.789-2.026 1.835-4.15 4.15-6.225 7.409-3.857 2.374-11.266 7.414-22.238 15.122-10.966 7.708-22.723 15.576-34.981 23.422-24.803 15.869-50.108 30.831-58.108 30.831h-0.598c-5.633-0.886-10.171-2.555-13.34-5.334-6.62-5.82-9.505-15.415-10.966-27.278-1.504-12.151-4.673-26.996-8.599-43.877-2.005-8.615-2.966-16.306-2.966-23.123 0-13.047 9.783-21.639 14.53-20.163 2.075 0.891 5.334 0.891 9.191 0 10.966 1.483 20.456 2.966 29.054 3.856 8.594 0.891 17.192 1.776 26.088 2.966 17.789 2.374 36.197 5.798 63.149 12.156zM321.1 195.363c2.966 0.576 4.742 1.184 5.632 1.483l106.136 24.312c7.413 4.443 13.339 10.375 13.339 19.565 0 13.933-12.082 30.59-23.714 45.952-3.19 4.209-6.048 8.695-8.897 13.639-2.789 4.849-5.894 9.212-9.19 13.639-6.193 8.321-13.933 14.823-21.938 14.823h-1.776c-9.489 0-12.454-4.156-18.087-9.788l-63.741-87.456c-4.502-6.183-8.001-14.231-8.001-21.346 0-3.558 0.885-6.817 2.368-10.082 7.116-7.115 21.65-5.948 27.87-4.742zM106.162 412.976l104.061-160.686c7.116-8.305 13.933-17.788 25.496-17.788 2.075 0 4.16 0.272 6.518 1.184 6.833 2.646 9.787 8.897 11.863 15.415 2.075 6.524 2.352 13.351 2.075 18.088l-10.972 185.884v1.781c0 3.26-0.592 8.599-2.965 13.341-2.369 4.742-5.926 8.892-11.559 9.782h-2.965c-13.047 0-39.851-5.27-61.368-12.748-6.656-2.31-13.335-4.475-20.162-5.931-7.111-1.51-13.618-3.025-19.864-5.036-12.135-3.915-21.639-9.489-23.123-20.162 0-1.184-0.299-2.075-0.592-2.966-0.299-0.891-0.598-1.483-0.598-2.368 0-3.264 0.641-6.209 1.483-8.599 0.939-2.656 1.782-5.632 2.672-9.19z" />
<glyph unicode="&#xe604;" glyph-name="google-plus" data-tags="google-plus" d="M0 193.729c0 9.335 0 18.666 0 28 9.315 97.896 117.365 178.541 226 134.002 11.911-4.883 46.509-23.669 46.001-31.999-0.044-0.749-18.813-16.876-21.999-20-8.772-8.596-15.021-15.417-23.999-20-9.5 9.851-18.488 16.658-28 20-71.566 25.148-136-33.219-136-96.001 0-25.072 10.296-49.952 23.999-66 44.132-51.692 154.435-46.24 169.999 34-30.666 0-61.335 0-91.999 0 1.32 17.346-2.649 39.983 2 54 50.021-1.314 105.304 2.638 151.999-2 7.228-113.318-54.795-180-154-180-93.313 0-149.242 62.736-164 146zM512 229.727c0-14.667 0-29.333 0-44-15.334 0-30.666 0-46.001 0-1.137-14.865 2.396-34.397-2-46.001-14.865 1.137-34.397-2.396-46.001 2-0.697 14.425 1.005 35.789 0 44-15.334 0-30.666 0-46.001 0 1.315 14.019-2.642 33.309 2 44 14.668 0 29.334 0 44 0 0.94 8.772-0.652 30.983 0 46.001 15.351-1.319 35.978 2.647 47.999-2 0-14.667 0-29.333 0-44 15.334 0 30.666 0 46.001 0z" />
<glyph unicode="&#xe605;" glyph-name="google" data-tags="google" d="M413.046 398.029c-21.673-22.796-44.262-44.675-66.525-66.879-21.711 17.723-46.144 31.479-80.68 35.031-36.329 3.736-68.457-7.669-91.298-22.648-22.156-14.53-40.556-36.584-52.37-62.986-11.885-26.558-15.131-65.315-4.954-97.666 8.895-28.273 25.667-51.127 47.064-68.296 22.008-17.658 47.962-28.687 84.928-30.43 35.981-1.7 65.718 11.586 87.049 27.601 22.44 16.846 38.8 37.654 49.187 66.173-44.351 0-88.701 0-133.052 0 0 31.612 0 63.222 0 94.833 76.975-0.522 156.149 1.157 231.423-1.062 12.131-58.214-0.981-113.644-20.523-152.513-20.573-40.921-50.606-72.055-87.404-94.833-35.758-22.137-86.759-39.551-146.144-33.971-53.011 4.981-94.329 25.265-128.097 53.788-33.304 28.13-58.531 63.099-73.603 108.634-7.863 23.757-11.998 51.144-11.323 79.265 0.68 28.341 6.487 54.338 14.862 76.079 28.465 73.894 86.802 128.968 170.915 147.91 12.65 2.85 26.754 4.616 41.401 5.307 38.645 1.826 71.566-6.496 98.372-18.046 27.349-11.784 50.704-26.53 70.774-45.294z" />
<glyph unicode="&#xe606;" glyph-name="pinterest" data-tags="pinterest" d="M437.825 403.257c-41.776 41.776-93.579 68.752-166.385 76.152h-31.274c-68.986-6.448-123.736-33.099-164.71-74.239-18.946-19.019-36.766-42.97-50.132-70.899-13.367-27.933-23.141-59.683-25.064-92.859-0.224-3.827-0.242-7.643-0.242-11.702 0-2.147-0.059-4.059 0-5.967 0.184-5.972 0.242-11.697 0.242-17.664 6.443-55.386 23.928-99.026 49.889-134.16 26.078-35.285 61.348-62.543 103.125-81.876-0.238 2.859-0.238 5.729-0.238 8.351 0 16.95 1.946 34.085 5.254 51.564 3.375 17.853 7.303 35.115 11.935 53.948 2.529 10.288 5.365 20.743 7.875 31.512 2.5 10.716 4.782 20.767 7.405 30.555 0.957 3.579 2.112 7.409 3.34 11.458 1.161 3.831 1.67 6.925 1.433 9.55 0 2.627-0.675 5.507-1.908 8.351-1.15 2.646-2.238 5.229-2.864 7.881-1.757 7.38-2.627 15.038-2.627 22.917-0.194 1.675-0.238 3.34 0 5.011 0.952 19.096 6.278 35.038 15.994 47.267 9.619 12.114 23.869 16.469 33.657 16.469 1.671 0 3.351-0.184 5.011-0.475 6.458-1.142 11.658-3.623 15.756-7.638 8.318-8.158 12.416-21.247 12.416-33.663 0-0.952 0.072-1.908 0-2.864-0.646-8.599-2.277-17.222-5.017-26.020-2.753-8.866-5.487-17.426-8.113-25.782-1.428-4.535-2.938-9.041-4.535-13.605-3.175-9.046-5.025-18.858-5.729-28.166-0.728-9.55 1.728-18.334 8.832-26.738 7.221-8.545 18.621-13.848 32.226-13.848 0.238 0 0.238 0 0.476-0.233 13.376 0 29.128 5.724 41.305 17.183 12.168 11.464 20.718 26.039 26.972 42.495 6.161 16.246 9.735 32.468 12.41 54.662 0.666 5.501 0.962 10.983 0.962 16.475 0 5.968-0.374 12.163-0.962 18.62-2.277 24.817-13.562 46.126-31.75 61.11-18.329 15.1-43.923 23.87-74.477 23.87-20.534 0-38.926-3.788-55.381-11.454-32.72-15.251-47.744-35.571-57.532-56.576-9.788-21.010-12.415-40.824-12.415-55.386 0-4.534 0.253-8.832 0.718-13.367 1.204-11.697 5.351-22.132 11.697-31.274 1.773-2.555 3.579-4.772 5.73-6.923 4.297-4.292 4.364-8.619 1.67-14.794-1.364-3.136-2.627-6.209-3.583-9.075-1.908-8.594-1.855-13.532-7.638-15.279-4.487-1.354-9.070-0.233-13.13 3.345s-7.4 5.967-10.026 7.638c-8.356 6.923-13.042 11.357-17.902 18.859-11.852 18.286-16.061 41.296-17.188 56.337-0.306 4.054-0.204 7.875-0.237 11.458-0.204 20.292 4.016 41.441 14.081 62.305 9.749 20.199 23.918 36.955 39.392 51.327 27.972 25.972 61.586 41.276 111.957 45.117 5.972 0.451 11.696 0.714 17.426 0.714 36.046 0 72.103-10.012 103.372-34.134 29.365-22.665 54.157-54.667 57.284-99.546 0.447-6.448 0.723-12.654 0.723-18.62 0-38.911-10.517-79.007-32.706-111.481-10.284-15.033-24.079-29.652-42.024-40.106-18.101-10.555-38.907-17.532-63.019-17.183-25.544 0.364-45.83 11.935-58.245 25.064-0.714 1.19-2.864 7.638-4.773 3.817-5.017-16.232-9.196-32.725-13.13-49.651-3.948-16.975-9.162-32.536-15.756-46.072-2.481-5.089-5.064-9.517-7.638-13.848-2.681-4.502-4.535-8.825-5.492-13.13 23.869-6.44 47.030-9.781 69.704-9.781 2.151 0 4.059-0.058 6.205 0 24.593 0.652 47.515 4.265 68.758 10.74 42.976 13.099 80.226 36.74 108.611 64.93 42.039 41.752 69.872 97.876 73.762 170.207 0.173 3.108 0.484 6.444 0.484 10.026 0 3.578-0.248 7.156-0.485 10.978-4.529 73.288-34.613 128.668-73.762 167.818z" />
<glyph unicode="&#xe607;" glyph-name="twitter" data-tags="twitter" d="M428.74 174.866c23.207 45.173 35.218 94.695 35.218 141.73v13.884c20.935 15.127 38.962 33.981 53.046 55.531-19.272-8.497-39.578-14.3-61.127-16.988 22.176 13.262 38.538 33.975 46.621 59.469-20.512-12.435-43.098-21.139-67.76-26.32-19.892 20.926-46.817 33.981-78.115 33.981-29.635 0-56.197-12.165-75.625-31.288-19.53-19.216-31.704-46.416-31.704-75.626 0-8.496 1.243-16.577 2.9-24.657-44.758 2.272-86.616 14.296-123.911 33.565-37.296 19.274-70.865 46.208-96.764 78.535-9.743-15.75-14.92-33.985-14.92-53.877 0-37.296 19.269-69.826 48.069-89.104-17.611 0.208-33.773 4.571-48.899 13.058v-1.247c0-25.896 9.584-49.682 24.657-67.965 15.175-18.394 36.676-31.902 61.542-36.876-8.912-2.488-18.443-3.731-28.389-3.731-6.838 0-13.468 0.623-19.892 1.658 6.631-21.55 20.14-39.533 37.504-52.834 17.239-13.222 38.75-20.723 62.576-21.346-37.296-29.007-82.468-46-133.233-46-8.496 0-16.988 0.416-25.484 1.242 48.072-30.457 103.188-47.865 164.315-47.865 65.481 0 121.661 18.186 166.599 47.662 44.784 29.375 79.568 70.242 102.776 115.411z" />
<glyph unicode="&#xe608;" glyph-name="yahoo" data-tags="yahoo" d="M367.387 99.608l36.317-12.173 9.981 33.129-37.716 12.173-8.582-33.128zM429.055 315.942l-36.724-157.061 30.343-12.975 89.403 140.902-83.022 29.134zM254.629 204.781l123.733 113.556 47.901 4.194 5.389 17.962h-172.034v-22.156h66.452l-90.6-87.012-88.412 121.341 63.060 11.377v20.955h-210.153l5.389-22.155 60.071-10.176 115.953-145.49v-86.615l-65.261-8.582v-21.752h201.371v28.736h-62.861v85.817z" />
<glyph unicode="&#xe609;" glyph-name="vk" data-tags="vk" horiz-adv-x="584" d="M526.992 267.225c17.552 23.527 36.222 46.44 47.721 73.802 9.287 22.101 2.694 34.001-21.427 33.396-25.658-0.639-51.344-0.038-77.010-0.172-23.909-0.118-27.491-3.033-36.919-25.316-6.753-15.954-13.293-32.179-21.991-47.069-13.264-22.697-26.055-46.006-45.629-64.254-14.805-13.803-24.7-10.936-30.73 8.499-0.897 2.876-2.457 5.799-2.399 8.675 0.415 21.801 1.384 43.597 1.726 65.398 0.224 14.156 0.548 28.408-0.772 42.457-1.183 12.606-9.396 20.18-22.107 22.331-5.894 0.996-11.785 2.666-17.7 2.77-19.627 0.353-39.343 1.207-58.859-0.272-11.695-0.887-23.461-4.812-34.493-9.157-9.005-3.543-9.090-9.801-0.377-13.851 15.338-7.125 23.666-18.381 23.847-35.174 0.257-24.163 0.839-48.368-0.349-72.466-0.419-8.447-4.536-17.333-9.024-24.782-4.53-7.526-10.469-7.784-16.956-1.522-8.632 8.338-17.375 16.926-24.2 26.709-18.964 27.205-37.049 55.029-48.32 86.603-7.645 21.405-20.614 34.645-45.786 30.676-8.838-1.392-18.080-0.195-27.142-0.234-11.323-0.038-22.745 0.768-33.949-0.424-19.078-2.017-24.148-10.692-15.758-27.219 20.471-40.354 40.44-81.038 62.718-120.39 22.631-39.982 48.767-77.604 82.897-109.335 26.637-24.748 56.856-41.212 91.826-50.738 20.284-5.523 40.449-3.076 60.672-3.72 29.995-0.95 30.367 2.137 35.761 33.538 0.506 2.933-0.362 6.139 0.31 9.014 1.349 5.81 2.094 12.286 5.256 17.065 11.723 17.723 18.892 21.438 35.695 6.053 13.34-12.211 26.055-25.245 37.926-38.895 15.649-17.995 33.176-30.171 58.506-27.337 9.692 1.082 19.607 0.171 29.424 0.171v0.454c16.609 0 33.257-0.659 49.822 0.204 14.547 0.754 21.514 10.731 18.432 24.81-0.948 4.321-2.601 8.89-5.202 12.396-7.629 10.25-15.297 20.594-24.048 29.861-15.549 16.459-31.982 32.070-47.906 48.185-16.606 16.817-18.165 28.401-4.866 47.933 9.724 14.275 21.033 27.458 31.379 41.322z" />
<glyph unicode="&#xe60a;" glyph-name="stumble-upon" data-tags="stumble-upon" d="M282.107 273.456l36.494-16.142 52.173 16.142v32.287c0 31.115-12.573 59.948-33.221 80.945-20.763 21.115-49.363 33.921-81.182 33.921-32.049 0-60.53-12.925-81.178-33.921-20.763-21.115-33.922-49.829-33.922-80.945v-160.255c0-14.74-11.463-27.604-26.203-27.604-15.674 0-26.904 12.864-26.904 27.604v70.653h-88.196v-70.653c0-31.815 13.216-60.239 33.922-80.945s49.361-33.922 81.178-33.922c31.115 0 60.3 11.993 81.416 31.817 20.996 19.714 33.922 47.957 33.922 79.777v163.527c0 14.736 11.23 26.67 25.965 26.67 14.74 0 25.736-11.935 25.736-26.67v-32.287zM424.583 212.63v-70.416c0-15.912-11.462-27.375-27.375-27.375-14.736 0-26.433 11.463-26.433 27.375v72.288l-52.173-16.142-36.495 16.142v-72.288c0-31.824 13.102-60.829 34.155-81.649 21.057-20.82 49.829-33.221 80.945-33.221 31.82 0 60.829 12.401 81.65 33.221s33.222 49.829 33.222 81.649v70.416h-87.497z" />
<glyph unicode="&#xe60b;" glyph-name="trip-advisor" data-tags="trip-advisor" d="M488.485 272.98c-1.85 2.674-2.399 4.949-1.4 8.108 4.828 15.237 12.288 29.119 21.166 42.315 0.726 1.087 1.422 2.197 2.49 3.853-2.875 0.178-5.148 0.429-7.413 0.429-24.55 0.040-49.099-0.008-73.652 0.113-2.063 0.009-4.412 0.572-6.146 1.655-34.432 21.5-71.875 34.83-111.88 40.923-13.556 2.067-27.303 2.89-40.962 4.303-0.837 0.083-1.664 0.321-2.496 0.49h-25.786c-7.918-0.719-15.835-1.399-23.749-2.167-48.078-4.663-93.287-18.111-134.553-43.762-2.132-1.322-4.975-2.097-7.493-2.115-23.688-0.151-47.385-0.091-71.078-0.073-1.586 0-3.172 0.155-4.758 0.234v-1.474c0.632-0.49 1.443-0.853 1.873-1.482 9.439-13.803 17.465-28.317 22.38-44.408 0.672-2.185 0.512-3.84-0.837-5.755-12.455-17.651-19.905-37.231-22.436-58.691-0.151-1.3-0.645-2.565-0.98-3.849v-21.361c1.196-6.249 1.989-12.611 3.654-18.726 13.95-51.281 46.63-84.321 98.588-95.281 49.27-10.392 90.913 5.555 124.174 43.32 0.234 0.273 0.542 0.486 1.339 1.178 8.941-13.326 17.821-26.561 27.004-40.255 9.218 13.721 18.141 27 26.123 38.891 4.901-4.165 9.942-8.226 14.735-12.559 23.19-20.932 50.271-32.503 81.53-33.916 68.019-3.072 128.392 48.226 133.068 120.109 1.897 29.118-5.909 55.887-22.505 79.953zM382.807 98.743c-57.812 0.767-102.488 47.051-101.357 103.927 1.127 56.368 47.77 101.041 105.053 99.394 54.697-1.572 99.259-45.538 98.901-102.020-0.372-58.765-48.075-102.020-102.597-101.3zM127.936 99.154c-55.77 0.13-101.188 46.319-101.058 102.765 0.125 55.246 46.206 100.728 101.938 100.599 56.407-0.117 101.928-45.677 101.798-101.868-0.13-56.235-46.063-101.635-102.679-101.496zM383.474 265.007c-35.441 0.035-63.675-27.965-63.593-63.060 0.078-34.171 28.187-62.526 61.56-63.103 34.644-0.606 64.575 26.648 64.856 62.722 0.272 35.12-27.897 63.402-62.823 63.441zM127.24 265.017c-35.329-0.026-63.489-28.161-63.346-63.32 0.143-35.476 29.812-63.397 64.75-62.848 33.53 0.533 61.678 28.971 61.648 63.329-0.035 34.799-28.187 62.856-63.052 62.839zM127.79 160.786c-22.925-0.32-41.83 18.276-42.007 41.305-0.169 22.084 18.44 40.901 40.65 41.105 23.090 0.208 41.643-17.885 41.885-40.85 0.239-22.414-18.137-41.248-40.529-41.56zM383.183 160.803c-22.457-0.169-41.327 18.587-41.387 41.144-0.061 22.591 18.591 41.248 41.226 41.248 22.777 0.009 41.244-18.353 41.313-41.079 0.070-22.622-18.371-41.135-41.153-41.313zM127.32 223.1c-12.151-0.031-21.252-9.079-21.266-21.135-0.017-11.731 9.3-21.067 21.005-21.058 11.649 0.009 21.17 9.448 21.152 20.98-0.013 11.805-9.304 21.24-20.893 21.214zM383.181 222.786c-11.329 0.195-20.685-8.914-20.875-20.321-0.2-11.649 8.763-20.95 20.382-21.178 11.748-0.23 21.179 8.906 21.334 20.685 0.156 11.394-9.070 20.611-20.841 20.815zM134.506 329.869c80.555 29.599 161.123 30.57 241.636-0.98-30.332-2.774-57.084-13.603-79.554-34.25-22.397-20.568-35.424-46.241-40.195-76.044-14.362 65.976-54.947 102.856-121.885 111.272z" />
<glyph unicode="&#xe60c;" glyph-name="soundcloud" data-tags="soundcloud" d="M29.453 192.955c-0.421 9.433-0.922 18.858-1.466 28.295-0.086 1.466 0 3.357 0 5.66 0 4.614-0.344 8.85-1.887 11.32-1.602 2.566-6.71 1.678-6.71-2.303 0-2.099-0.248-4.401-0.421-6.917-0.669-10.062-0.941-19.5-1.258-28.091-0.313-8.596-0.887-17.812-1.466-27.25-0.258-4.189-0.566-8.175-0.837-11.736-0.145-1.892-0.213-3.773-0.213-5.452 0-1.887 0.086-3.551 0.213-5.239 0.285-7.125 0.951-14.663 1.674-22.635 0.747-8.166 1.506-15.916 1.887-23.688 0.248-5.022-0.208-11.949 4.194-11.949 2.724 0 3.977 1.887 4.194 5.659 0.204 3.565 0.398 6.918 0.628 9.642 0.819 9.853 1.588 19.084 2.516 28.091 0.538 5.248 0.837 10.899 0.837 16.767 0 3.773-0.172 7.551-0.421 11.527-0.588 9.438-1.046 18.866-1.466 28.3zM212.647 246.404c-0.208 15.093-0.439 29.973-0.629 44.437-0.018 1.678-0.005 3.986 0.213 6.917 0.2 2.728 0.208 5.66 0.208 8.591 0 5.66-0.095 10.835-1.679 13.207-1.774 2.664-5.655 3.357-7.333 3.357-4.611-0.634-6.917-3.144-6.917-7.967s-0.272-10.058-0.421-15.509c-0.272-10.062-0.629-19.703-0.837-28.928-0.213-9.433-0.421-19.074-0.421-29.136 0-6.288 0-12.786-0.208-19.703s-0.208-13.623-0.421-20.541c-0.208-6.918-0.208-13.414-0.417-19.702-0.213-6.288-0.213-11.949-0.213-17.188 0-18.445 1.316-39.207 2.516-57.643 0.479-7.348 0.828-11.822 7.338-12.786 4.809-0.714 7.107 1.892 7.963 6.288 0.819 4.194 0.837 10.062 1.049 15.089 0.624 14.685 1.362 29.349 1.678 43.808 0.104 4.827 0.208 9.642 0.208 14.671 0 9.646-0.212 19.287-0.629 28.719-0.629 14.252-0.837 28.923-1.049 44.016zM73.052 244.937c-0.118 1.674 0 3.982 0 6.705 0 5.452-0.34 10.107-2.1 13.207-1.805 3.189-7.754 1.678-7.754-2.724 0-2.303-0.24-5.026-0.421-8.175-0.66-11.736-1.258-22.847-1.674-33.117-0.421-10.271-0.882-21.169-1.471-32.28-0.253-4.818-0.633-9.216-0.837-13.414-0.212-4.402-0.484-8.596-0.421-12.577 0.145-8.387 0.85-17.188 1.678-26.412 0.846-9.428 1.316-18.667 2.095-27.878 0.272-3.158 0.782-6.288 1.050-9.428 0.57-6.714 6.36-5.284 7.967-2.728 1.543 2.47 1.887 6.501 1.887 10.691v5.452c2.303 22.635 3.981 39.406 3.981 53.449 0 3.981-0.022 8.175-0.207 12.157-1.072 22.426-2.213 44.64-3.773 67.076zM167.374 197.146c-1.036 28.715-1.982 57.639-2.516 87.195-0.095 5.243-0.208 9.853-1.046 13.626-0.841 3.773-3.601 5.587-7.966 4.402-5.696-1.543-4.705-8.176-4.823-16.351-0.090-6.497-0.417-13.414-0.629-20.332-0.208-6.918-0.375-13.414-0.629-19.495-1.005-24.521-0.919-54.513-1.674-80.278-0.050-2.317-0.213-4.818-0.213-7.126 0-6.080 0.317-12.147 0.842-18.445 0.732-8.795 1.362-17.391 1.887-25.991 0.317-5.235 0.417-9.642 0.629-13.623 0.208-3.986 2.311-6.193 6.288-6.501 6.922-0.529 7.076 6.293 7.334 13.207 0.37 9.868 1.252 19.074 1.887 28.086 0.619 8.804 1.144 17.82 1.465 27.041 0.099 2.733 0.213 5.66 0.213 8.591 0 2.728-0.072 5.655-0.213 8.388-0.28 5.655-0.615 11.527-0.837 17.603zM118.118 285.6c-0.094 2.307 0 4.822 0 7.338 0 4.822-1.688 7.266-4.194 7.547-1.266 0.14-2.094 0-2.307-0.213-6.496-1.045-5.239-6.917-5.239-15.088v-6.917c0-2.516-0.207-4.614-0.421-6.288-0.629-18.029-1.046-35.637-1.674-53.029-0.629-17.404-1.072-35.003-1.257-53.037-0.022-2.298 0-4.398 0-6.705 0-6.501 0.204-12.572 0.837-18.658 0.832-7.959 1.592-16.545 2.094-25.774 0.127-2.307 0-4.615 0-6.923 0-2.511 0.213-4.822 0.841-6.709 0.837-4.185 2.303-6.913 5.66-6.913 1.887 0 3.352 0.841 4.401 2.303 1.674 3.144 2.094 7.547 2.094 12.582v6.072c0.837 8.805 1.678 17.613 2.516 26.204 0.629 6.501 1.045 12.791 1.045 19.074-0.207 2.099-0.176 4.194-0.207 6.288-0.597 38.782-2.606 79.436-4.189 118.847zM527.058 170.108c-1.676 27.036-13.662 46.062-31.232 58.060-8.207 5.61-19.074 11.094-32.279 12.786-3.145 0.407-6.079 0.629-9.224 0.629-3.563 0-7.323-0.267-10.897-0.837-6.909-1.104-13.207-2.516-18.865-4.818-3.353 36.049-18.866 61.832-38.985 81.956-20.124 20.119-47.169 34.511-84.264 36.885-2.104 0.136-4.194 0.213-6.288 0.213s-4.189-0.050-6.497-0.213c-9.849-0.674-18.576-2.144-26.62-4.189-3.575-0.561-7.552-1.66-12.364-3.144-9.442-2.913-9.646-7.125-9.646-12.786v-206.041c0-3.144-0.063-6.705-0.208-10.274-0.067-1.674 0-3.353 0-5.031 0-1.674-0.067-3.353 0-5.031 0.14-3.357 0.774-6.23 1.679-8.8 1.823-5.193 5.442-6.647 14.043-6.081 4.189 0.276 7.962 0.421 11.527 0.421 26.2 0 52.192 0 77.975-0.212 25.779-0.207 51.349-0.207 76.712-0.207 7.967 0 15.721-0.027 23.060-0.207 1.046-0.027 2.095 0 3.144 0 6.077 0 11.753 0.272 16.973 1.045 11.764 1.741 22.065 6.497 31.448 13.207 16.409 11.74 30.809 29.253 30.809 57.221v0.421l0.212 3.352c0.038 0.629 0 1.050-0.212 1.678z" />
<glyph unicode="&#xe60d;" glyph-name="reddit" data-tags="reddit" d="M392.711 74.899c-35.967-22.159-84.723-35.409-134.293-35.409-55.892 0-105.103 15.072-140.351 38.19-35.306 23.157-56.899 54.875-56.899 87.246 0 40.716 25.015 73.625 61.705 96.104 36.392 22.291 84.465 34.894 129.228 34.894 46.534 0 96.634-11.071 135.042-32.875 38.224-21.695 64.995-54.371 64.995-97.107 0-37.426-23.578-68.952-59.426-91.044zM345.166 120.17c-4.013 2.585-8.087 2.51-16.188-2.282-4.289-2.541-9.677-5.134-16.438-8.087-13.475-5.897-32.624-11.127-58.165-11.127-13.401 0-24.529 1.007-33.382 3.036-17.703 4.043-28.572 10.361-35.403 14.922-6.83 4.551-15.175 7.837-20.485 0-2.782-2.279-4.043-4.807-4.043-7.589 0-1.769 0.565-3.51 1.516-5.31 4.109-7.811 18.724-15.644 36.922-21.498 17.971-5.778 38.188-9.611 54.122-9.611 17.445 0 36.678 3.51 54.118 8.599 17.204 5.025 32.112 12.139 41.216 18.961 0.762 0.762 1.573 2.764 2.782 6.326 2.327 6.813-2.738 11.193-6.571 13.659zM337.576 222.842c-17.195 0-30.596-14.672-30.596-31.109 0-17.19 16.941-26.806 32.117-26.806 15.93 0 28.069 13.406 28.069 29.339v0.504c0 3.798-3.474 10.181-9.353 15.933-6.011 5.879-13.406 10.874-20.236 12.139zM206.071 193.76c0 15.933-13.651 29.085-29.589 29.085-15.929 0-30.596-15.175-30.596-31.109 0-15.171 15.929-26.807 31.104-26.807 15.933 0 29.081 11.632 29.081 28.831zM51.053 224.608c-1.231-2.546-2.273-4.801-3.54-7.079-1.266-2.274-2.782-5.056-4.551-8.091-7.084 6.834-16.188 13.406-16.188 27.31v1.012c0 18.207 7.758 26.198 21.747 33.89 6.248 3.43 11.885 3.54 17.2 3.54 7.838 0 15.933-2.532 23.771-7.333-2.782-2.274-5.069-4.293-6.83-5.817-2.028-1.76-3.96-3.369-5.814-5.056-3.72-3.377-7.933-7.513-14.672-15.932-5.401-6.756-8.81-11.654-11.123-16.442zM486.278 235.232c0-13.91-8.090-19.218-15.933-25.291l-21.745 35.157c-4.301 5.559-8.052 9.665-11.638 11.885-3.758 2.331-8.346 6.068-13.909 10.874 2.024 1.012 3.795 2.020 5.060 3.031 1.266 0.762 2.533 1.52 3.798 2.279 2.783 1.262 6.070 2.024 13.904 2.024h1.015c18.961 0 39.447-12.647 39.447-36.165v-3.793zM512.077 241.050c0 17.952-8.23 33.269-20.236 43.493-12.024 10.26-28.573 16.446-44.508 16.446-19.22 0-37.427-12.144-46.535-17.454-20.486 10.12-39.923 19.587-59.931 24.787-13.125 3.404-23.521 5.835-33.637 7.578-10.365 1.792-21.497 2.532-35.403 3.29 1.262 8.345 1.769 16.438 1.769 24.025 0 6.576 1.721 13.677 5.056 20.989 7.286 15.955 17.2 27.060 37.68 27.060 9.358 0 17.45-1.007 24.026-3.29 6.576-2.269 14.413-4.802 23.267-7.583 0-10.37 2.111-24.214 10.365-35.406 10.207-13.844 24.279-24.274 48.558-24.274h1.515c13.916 0 28.324 6.068 39.202 15.675 10.87 9.611 17.955 24.025 17.955 41.225 0 17.449-8.095 32.117-19.476 41.724-11.377 9.616-26.301 14.922-40.204 14.922-13.914 0-25.313-5.788-34.14-11.885-9.125-6.296-15.43-13.655-16.695-17.703-19.977 7.334-32.117 11.885-54.371 11.885-18.461 0-38.653-6.857-51.839-24.784-12.862-17.476-17.963-37.172-17.963-71.567-12.389-1.769-23.272-2.655-32.62-3.29-9.367-0.626-19.925-2.987-32.117-6.067-13.857-3.5-24.782-7.588-35.406-12.389-10.619-4.801-21.243-9.611-35.148-14.922-5.314 4.801-19.219 17.454-43.499 17.454h-2.024c-17.957 0-34.206-6.007-46.026-16.95-11.947-11.058-19.727-26.049-19.727-43.997v-1.016c0-11.127 5.625-23.473 13.152-33.383 7.644-10.072 15.679-18.965 23.516-21.747-1.266-3.29-2.024-9.611-2.024-17.449 0-15.933 4.205-39.1 17.2-59.681 18.619-29.497 48.575-52.813 84.215-68.785 35.429-15.891 77.389-24.285 118.858-24.285h4.552c42.228 0 82.207 9.309 115.572 23.774 33.146 14.372 59.3 33.477 74.606 53.362 24.398 31.709 29.836 59.177 29.836 75.615 0 5.559-0.477 9.865-1.262 13.151-0.733 3.041-1.266 5.055-1.266 6.067 18.462 7.334 35.155 25.037 35.155 55.383zM422.55 408.208c17.955 0 32.117-14.159 32.117-32.116v-1.012c0-16.438-14.161-29.589-32.116-29.589-8.854 0-16.503 2.97-22.759 8.854-6.642 6.252-9.865 14.163-9.865 24.030 0 16.179 16.188 29.834 32.625 29.834z" />
<glyph unicode="&#xe60e;" glyph-name="ncd" data-tags="ncd" horiz-adv-x="528" d="M388.631 118.737c-30.844-0.272-41.57-0.679-43.827-0.781l-9.334 19.256-42.819 93.293c-10.081 21.942-9.233 39.985 26.181 40.319 36.327 0.334 77.115-24.953 91.766-56.888l17.216-37.531c14.496-31.532-2.856-57.334-39.182-57.668zM509.834 200.399c-38.089 83.024-130.412 137.104-220.773 136.289l-50.060-0.467-4.15 8.56c-20.227 30.508-64.501 54.124-102.761 54.124-26.879-0.235-48.642-14.061-54.219-33.627l-75.318 38.567 73.947-161.109c-30.014-0.311-54.668-12.208-67.653-32.657-12.493-19.681-12.955-44.501-1.305-69.879 23.89-52.070 95.072-96.044 155.445-96.044h1.077c30.474 0.265 55.41 12.307 68.411 33.002l2.293 3.639-69.323 39.202-1.961-3.793c-3.596-6.935-11.783-10.971-22.852-11.060-20.61 0-44.103 14.629-52.362 32.645l-4.483 9.724c-3.712 8.118-3.814 15.634-0.284 21.186 3.684 5.798 10.942 9.033 20.57 9.122 9.97 0 29.537-9.346 36.239-12.956l3.446-1.851 27.831 46.074-2.051 4.393-47.673 103.841c-2.459 5.342-2.609 10.168-0.442 13.593 2.318 3.658 7.169 5.71 13.92 5.777 12.226 0 25.752-7.38 32.56-17.361l120.622-262.795h0.077l0.189-0.411c0 0 38.779-0.070 128.695 0.755 90.361 0.825 130.99 59.321 92.346 143.526z" />
<glyph unicode="&#xe60f;" glyph-name="mixcloud" data-tags="mixcloud" horiz-adv-x="600" d="M544.891 49.080c-11.909 3.781-15.857 15.52-25.552 21.517 16.899 19.736 36.78 47.211 40.347 80.69 5.275 49.572-13.703 90.911-39.003 117.003 5.050 10.19 15.346 15.133 21.516 24.207 2.17 0.379 2.317-1.27 4.037-1.343 23.767-26.812 45.022-64.256 48.413-111.624 3.898-54.332-23.15-101.583-49.76-130.451zM386.202 254.845c63.509-1.125 109.017-67.119 76.658-127.761-31.341-58.738-116.034-44.381-216.524-44.381-69.034 0-142.864-9.8-185.591 10.759-99.284 47.774-69.71 213.601 59.173 205.765 22.518 49.329 56.394 90.031 121.038 94.142 87.287 5.552 141.294-57.766 145.246-138.52zM499.168 89.425c-3.322 2.56-6.312 5.457-9.219 8.435l-5.774 5.993c-2.906 2.978-5.896 5.875-9.219 8.435 30.522 26.492 29.24 94.274-1.346 119.692 8.182 7.061 15.805 14.679 22.863 22.864 1.144 0.246 1.268-0.524 1.346-1.346 43.078-29.364 43.118-129.761 2.317-163.325l-0.971-0.749zM243.646 359.743c-44.339-2.67-74.763-29.74-88.763-69.932 6.87-5.232 16.464-7.743 21.517-14.795-7.744-7.943-12.601-18.779-21.517-25.553-18.108 12.293-29.341 17.968-52.451 16.138-66.008-5.226-94.355-98.501-34.966-137.177 35.578-23.171 119.893-12.106 180.212-12.106 52.834 0 103.987-5.483 145.246 0 61.38 8.156 60.546 108.421-12.106 103.555-3.566-9.431-6.365-19.635-12.105-26.897-8.652 6.142-19.389 10.197-28.243 16.138 37.435 74.18-20.962 155.194-96.832 150.625z" />
<glyph unicode="&#xe610;" glyph-name="lastfm" data-tags="lastfm" d="M144.286 66.152h2.129c9.362 0 18.942 1.049 28.73 2.977 19.373 3.822 36.839 10.175 50.448 17.453 13.423 7.194 18.938 12.774 25.54 19.373 6.594 6.599 12.13 12.13 17.235 17.88l-17.671 42.993c-6.376-11.068-14.667-20.635-24.047-29.161-16.374-14.889-39.798-29.157-71.941-29.157h-1.275c-34.27 0-62.468 13.086-82.8 34.267-20.323 21.176-31.929 50.449-31.929 83.009v0.853c0 31.498 12.931 59.86 32.996 80.241 19.951 20.274 48.102 32.565 77.686 32.565h1.919c18.52 0 37.266-4.852 53.63-12.769 16.204-7.833 29.117-18.422 35.982-30.224 20.594-35.449 31.529-62.988 41.926-90.034 10.464-27.233 20.652-53.519 39.163-87.479 7.247-13.294 19.154-25.544 33.627-34.906 14.476-9.366 31.721-15.111 51.084-15.111h5.536c30.433 0 55.56 9.788 73.006 26.392 17.455 16.599 26.818 38.95 26.818 65.129 0 15.538-1.495 27.454-5.32 37.462-3.825 10.002-10.81 18.36-21.28 27.032-16.772 13.886-33.611 18.399-51.937 23.625-18.279 5.208-38.092 10.877-59.603 26.393-4.452 3.213-7.025 13.623-7.025 24.051v5.11c0 1.489 0.289 2.95 0.853 4.466 1.346 3.594 2.195 6.367 2.768 8.517 1.129 4.239 3.652 8.247 9.571 12.557 5.789 4.208 15.76 12.557 23.425 12.557 2.976 0 5.745-0.213 8.513-0.849 2.768-0.639 5.745-1.066 9.361-1.066 0.635 0 1.058 0.213 1.702 0.426 0.426 0.213 0.849 0.213 1.493 0.213 3.404-1.916 6.171-3.195 8.087-3.83 1.92-0.64 3.621-1.707 5.318-2.982 3.413-2.555 7.447-6.599 14.476-15.965l30.861 15.325c-4.467 7.025-9.475 13.312-14.683 19.154-8.832 9.909-20.682 19.795-32.779 21.714-5.363 0.849-14.902 1.702-26.606 1.702-16.817 0-39.070-3.301-57.895-20.008-15.226-13.517-23.203-35.12-23.203-56.194 0-32.138 17.702-52.31 32.143-62.362 14.294-9.953 29.592-16.138 45.761-20.861 7.887-2.301 15.724-4.981 23.199-7.66 15.081-5.407 28.541-12.543 37.887-24.264 4.909-6.159 6.172-13.196 6.172-20.861 0-9.362-2.683-18.772-7.021-27.029-4.397-8.349-10.349-14.858-15.54-17.453-15.242-7.62-30.438-10.433-43.204-10.433-22.14 0-40.691 8.922-48.964 24.478-20.67 38.932-38.070 81.317-52.137 115.578-7.003 17.035-13.112 31.751-18.311 43.846-5.226 12.17-9.571 20.007-13.192 23.625-1.066 0.213-2.43 1.986-4.261 5.109-1.786 3.053-4.354 6.688-7.869 11.068-6.918 8.602-18.288 19.835-36.19 29.157-18.066 9.411-43.632 17.666-78.54 20.007-35.968-1.702-73.269-15.906-101.102-42.358-27.935-26.548-47.041-64.916-47.041-113.659v-2.977c0-46.614 19.377-85.777 46.828-113.236 27.454-27.455 63.645-43.42 97.489-43.42z" />
<glyph unicode="&#xe611;" glyph-name="imdb" data-tags="imdb" horiz-adv-x="624" d="M431.166 340.877c-5.625 2.459-11.556 4.427-17.587 5.302-12.291 1.771-26.274 1.927-42.664 1.927-4.089 0-8.188 0.058-12.286 0-12.296-0.183-24.587-0.245-37.118-0.245-1.688 0-3.37 0-4.577 0.245h-0.479c-1.203 0-2.416-0.485-3.854-1.208v-243.896h82.902c9.635 0 19.296 0.286 28.676 1.443 8.219 1.015 15.176 4.349 21.207 9.401 11.812 9.89 13.978 27.233 13.978 38.56v123.88c0 9.636-0.36 19.535-1.688 30.123-2.047 16.406-11.161 27.764-26.509 34.467zM-0.234 103.482h62.663v243.901h-62.663v-243.901zM195.943 294.362c-2.167-17.593-4.577-35.431-7.23-53.268h-1.448c-2.651 17.837-5.057 35.675-7.708 53.269s-5.301 35.186-7.953 53.024h-81.944v-243.901h54.706v149.425h1.933c3.614-24.826 7.229-49.654 10.844-74.47 3.614-24.822 7.229-49.654 10.844-74.476h40.008c3.614 25.307 6.974 50.618 10.125 75.679 3.114 24.827 6.505 49.888 10.119 74.955h2.411v-150.634h54.951v243.9h-82.423c-2.651-18.077-5.063-35.91-7.233-53.502zM562.036 146.866c0-3.624-1.443-7.229-3.62-10.364-1.692-0.724-3.367-0.964-5.053-0.964-1.934 0-3.869 0.24-5.787 0.479-2.659 2.651-3.895 6.026-3.859 10.365 0.196 19.041 0.476 38.082 0.476 57.362 0 19.036-0.28 38.316-0.476 57.602-0.037 4.333 1.199 7.229 3.859 8.912 1.686 0.244 3.129 0.244 4.577 0.244 6.511 0 9.884-0.724 9.884-12.051v-111.584zM395.5 165.662c0-2.166-0.172-4.344-0.479-6.265-0.662-4.109-1.688-12.844-8.197-13.495-3.136-0.312-6.745-0.724-10.365-1.448v161.477c1.933 0.24 3.62 0.479 5.297 0.479 9.166 0 13.744-5.301 13.744-15.906v-124.843zM623.731 270.256c-0.539 17.603-8.653 28.973-23.852 33.983-6.733 2.224-13.509 3.136-20.254 3.136-1.934 0-3.842-0.062-5.777-0.24-8.678-0.786-16.913-4.53-24.354-11.087-0.761-0.678-1.438-1.449-2.162-2.167-0.724-0.969-1.924-1.208-3.615-0.484v53.987h-61.212v-243.901h55.668c2.167 1.688 3.135 3.859 2.902 6.51-0.254 2.651 0.952 4.577 3.119 6.265 4.344-3.858 8.25-6.921 11.337-9.161 6.548-4.749 12.774-7.021 19.27-7.229 0.972-0.031 2.178 0 3.383 0 2.654 0 5.295 0 8.441 0.24 15.655 1.209 32.361 14.25 34.455 27.957 1.035 6.776 2.654 12.776 2.654 19.281 0 20.728 0.058 41.212 0.249 61.461 0.053 6.745 0 13.495 0 20.244 0 13.734 0.169 27.479-0.249 41.206z" />
<glyph unicode="&#xe612;" glyph-name="etsy" data-tags="etsy" horiz-adv-x="648" d="M344.971 152.435c1.516 3.719 2.484 7.706 3.227 12.427 0 3.231-0.242 7.201-0.743 11.43-0.497 4.224-0.752 8.199-0.752 11.922 0 6.959 2.241 12.427 11.188 12.427 2.734-5.226 2.985-9.196 3.227-12.669 0.25-3.481 0.259-6.466 2.241-11.438 5.226-13.158 25.088-20.863 41.248-20.622 0.25 0.005 0.743 0 0.99 0 16.894 0.242 28.332 10.186 28.332 24.354 0 2.238-0.212 4.726-0.752 7.455-2.692 13.671-21.819 20.728-40.751 28.57-18.839 7.808-38.386 16.431-41.745 34.047-0.616 3.256-0.943 6.453-0.998 9.693-0.195 12.665 6.725 26.794 22.868 35.036 8.212 4.19 17.642 6.483 28.57 6.709 0.998 0.017 1.988 0 2.735 0.242 9.944 0 20.13-1.49 30.807-4.721 2.246 0.255 4.229 1.24 5.469 2.484 1.245 1.239 2.735 2.237 4.721 2.984h0.998c3.969 0 5.464-3.227 4.967-7.702-0.242-2.238-0.743-4.721-1.24-6.959-0.493-2.237-0.747-4.475-0.747-6.716 0-2.73 0.094-5.702 0.255-8.941 0.336-6.954-0.158-12.979-2.484-16.648-1.154-1.804-3.231-2.484-6.216-2.238-3.231 3.974-4.445 6.716-5.218 9.935-0.722 2.984-0.735 5.707-3.478 9.693-5.715 10.185-19.628 14.19-30.315 14.41-1.24 0.026-2.238 0-3.231-0.25-12.669-1.239-23.101-7.702-23.101-19.878v-1.239c0-15.663 17.654-22.321 36.518-30.065 18.656-7.663 38.475-14.928 44.487-32.556 1.945-5.723 2.976-10.933 2.976-16.147 0-2.735-0.378-5.69-0.998-8.454-3.358-15.123-13.175-26.587-28.57-33.045-7.707-3.231-16.155-4.972-24.851-4.972-0.747 0-1.745-0.026-2.484 0-5.965 0.221-11.913 1.274-17.642 3.227-5.209 1.771-10.19 2.73-15.408 2.73-2.735 0-6.981 0.288-9.693-1.236-1.262-0.709-2.484-1.495-3.473-2.238-2.246-1.244-4.734-2.238-10.691-1.002-0.747 1.495-1.244 3.24-1.244 4.972 0 1.745 0.276 3.223 0.998 4.972zM2.56 149.705c0.748 5.962 6.211 7.931 12.423 8.691 5.97 0.73 12.92 0.998 15.654 4.972 4.475 9.693 6.709 21.87 6.709 36.531 0 1.244 0.026 2.73 0 3.969-0.721 33.049-1.121 72.552 0 100.149 0.373 9.184 1.062 21.87-0.747 34.539-1.176 8.211-5.218 19.628-8.449 22.859-1.987 1.245-3.986 2.157-6.212 2.484-4.483 0.666-8.437 1.019-11.184 2.735-1.231 0.768-2.237 2.729-2.484 5.961 0.748 3.974 3.723 4.972 7.209 4.972 1.736 0 3.477 0 5.218-0.251 1.736-0.254 3.227-0.28 4.224-0.254 7.948 0.22 16.146 0.254 24.846 0.254 4.224 0 8.695 0.060 13.421 0 13.667-0.183 27.334-0.254 41.002-0.254 27.573 0 53.918 0.505 74.539 4.228h1.494c4.224 0 6.212-2.238 6.212-6.963 0-2.479-0.28-5.205-0.998-7.944-0.773-2.976-1.239-5.715-1.239-7.957 0-2.73 0.25-5.719 0.496-9.188 0.25-3.477 0.497-6.716 0.497-9.693 0-6.212-1.244-10.691-7.957-10.691-3.231 2.735-4.225 5.223-4.225 8.453v4.721c0 1.732-0.526 3.21-1.49 4.971-5.995 10.916-25.594 14.907-46.966 14.907-21.369 0-43.982-2.484-56.902-4.725-3.974-10.182-4.475-24.103-4.475-39.010s0.747-30.060 1.494-42.237c1.733 0.242 3.715 0.144 5.715 0 7.948 0 19.87-1.325 33.796-2.48 3.966-0.335 7.944-0.497 11.922-0.497 2.734 0 5.46 0.348 8.198 0.497 6.453 0.348 11.922 1.745 16.155 3.97 5.214 2.746 7.451 7.702 8.449 11.93 0.989 4.22 1.737 9.693 5.962 14.907 6.708 0 8.029-3.974 7.706-9.693-0.174-2.985-0.612-6.19-1.244-9.442-1.355-6.933-1.724-13.158-0.497-21.861 1.261-8.946 2.242-17.649 1.244-24.103-0.497-3.231-1.988-5.719-4.721-6.963-5.962 1.991-7.456 6.466-8.45 10.933-0.998 4.479-1.737 9.693-7.456 12.933-4.225 2.972-9.205 4.594-15.157 5.214-5.978 0.624-12.177 0.369-18.882 0-6.716-0.374-13.668-1.002-20.626-1.737-4.717-0.51-8.946-0.747-13.17-0.747-1.987 0-3.974 0-5.962 0.242-3.227-8.195-4.224-21.364-4.972-35.032-0.242-4.475-0.242-8.95-0.242-13.416 0-2.238-0.064-4.475 0-6.717 0.182-6.704 0.492-12.418 1.239-17.642 0-3.969 1.244-13.408 3.974-16.647 3.974-5.715 11.421-9.286 22.362-10.185 4.221-0.34 8.695-0.497 13.416-0.497 13.913 0 34.727 1.919 54.915 8.704 10.131 3.405 16.5 6.623 18.881 9.935 3.337 4.64 3.724 10.683 4.475 15.65 0.747 4.971 1.49 10.44 5.715 14.414 10.933-1.983 12.096-8.925 10.436-17.395-0.824-4.212-2.166-8.729-4.225-13.413-4.153-9.476-5.393-18.108-2.73-24.103 1.312-2.95 0.743-5.965-1.987-9.196-10.691 1.736-22.868 2.87-36.781 3.227-5.218 0.14-10.682 0.191-15.9 0.242-18.142 0.195-42.98-0.391-73.796-1.988-7.702-0.39-14.916-0.497-22.117-0.497-7.209 0-14.172 0.144-20.877 0.497-2.739 0.144-5.961 0.255-9.935-0.242-3.979-0.497-6.212 1.245-6.959 4.972zM218.492 281.398c0.747 5.961 2.734 8.449 5.719 9.442 1.49 0.492 3.226 0.989 4.967 1.49s3.18 1.32 4.972 2.484c8.148 5.295 12.669 13.667 17.144 22.116 2.238 4.224 4.322 8.394 6.461 12.67 2.089 4.173 4.475 8.198 7.456 11.922h2.976c4.721-3.974 4.721-11.175 3.231-18.635s-3.732-16.155-1.736-24.103c3.227-1.24 7.447-1.902 12.173-1.736 9.689 0.331 19.387 0.832 28.328 0.496 4.228-0.161 7.702-0.998 10.435-2.734 0.25-4.721 0-9.196-0.989-13.416h-48.207c0.25-2.985 0.175-6.212 0.25-9.442 0.174-7.209-0.301-15.153-1.245-24.103-2.789-26.583-3.698-52.916 2.735-70.565 3.257-8.941 9.689-13.76 19.628-13.918 5.962-0.094 10.13 3.074 13.918 5.214 3.673 2.085 7.702 3.733 12.92 0.998 0-12.173-13.192-22.545-27.827-26.587-4.246-1.164-8.45-1.736-12.678-1.736-3.227 0-6.437 0.331-9.689 0.998-7.69 1.575-13.667 5.214-17.892 11.425-5.214 6.216-7.732 14.665-7.948 25.348-0.034 1.49 0 2.985 0 4.726 0 9.184 0.433 18.384 1.24 28.073 0.93 11.188 1.754 21.866 1.987 31.805 0.017 0.747 0 1.737 0 2.484 0 9.196-1.826 16.593-5.464 22.613-2.828 4.666-7.97 6.402-12.678 7.702-2.501 0.692-4.717 1.244-6.462 1.736-1.737 0.496-2.976 1.495-3.724 3.231zM470.204 288.607v8.696c0.743 0.25 1.24 0.743 1.49 0.989 0.242 0.25 0.497 0.497 1.24 0.497 4.726-1.24 9.944-1.736 15.654-1.736 0.747 0 1.245-0.017 1.988 0 13.166 0.233 27.581 0.743 39.515 0.743 5.962 0 10.678-0.989 13.913-2.976 0.747-5.962-2.237-7.456-6.708-8.45-2.229-0.496-4.475-0.747-6.708-0.998-2.242-0.25-3.728-0.989-4.726-2.484 0-19.628 5.821-35.236 12.924-50.444 3.58-7.655 7.256-15.378 10.936-23.106 3.777-7.927 6.453-16.155 8.692-24.6 4.723 4.475 8.696 10.683 11.675 18.881 2.992 8.203 6.816 16.601 11.189 25.347 1.846 3.677 3.789 7.918 6.211 12.172 4.783 8.416 8.418 16.907 10.188 25.101 1.71 7.957-1.207 14.728-5.217 16.397-1.961 0.82-3.973 1.494-5.959 2.238-4.233 0.998-7.707 2.238-9.944 9.943 2.745 2.976 7.456 4.233 14.412 3.477 6.718-0.73 13.666-0.989 20.375-0.989 6.462 0 12.92 0.242 19.386 0.492 6.207 0.242 11.173-0.242 14.655-1.987-1.245-6.708-5.938-9.49-10.933-11.922-5.196-2.535-11.044-4.623-15.158-9.443-4.578-5.371-8.742-12.656-12.43-21.615-3.76-9.179-8.24-18.363-12.912-27.827-5.52-11.163-11.014-23.925-16.905-38.021-11.744-28.149-24.851-56.401-39.006-80.258-7.222-12.173-14.669-21.611-22.371-28.327-5.965-5.205-20.366-11.68-31.058-11.68-5.218 0-9.493 1.695-12.423 4.972-1.295 1.448-1.988 3.478-1.988 5.962 0 3.231 0.998 7.209 2.73 11.93 7.706 5.214 22.371 3.231 28.32-1.495 10.198 4.726 19.662 14.142 26.841 25.348 6.992 10.911 11.935 24.108 11.935 36.28 0 10.181-3.533 22.095-8.212 34.781-2.28 6.195-4.751 12.661-7.452 18.889-5.498 12.656-9.693 23.853-15.158 39.261-5.473 15.408-12.011 28.239-21.623 37.516-4.803 4.64-10.683 7.456-17.387 8.453z" />
<glyph unicode="&#xe613;" glyph-name="fab" data-tags="fab" d="M0.957 121.714c2.4 0.199 4.795 0.4 6.992 0.4s4.399-0.14 6.592-0.4c4.601-0.54 9.185-0.8 13.782-0.8h6.588c1.797 0 3.397 0.399 4.992 1.2-0.598 3.595-0.998 6.592-0.998 8.988v65.913c0 4.795 0.602 10.187 3.797 14.38h73.701v35.154h-76.895c0.198 2.998 0.395 5.792 0.395 8.79 0 2.597 0.053 5.195-0.198 7.787-0.544 5.599-0.8 11.185-0.8 16.577 0 5.792 0 12.586 3.797 17.978h73.701v35.15h-115.446v-211.116zM463.336 167.255c-8.174-10.397-20.37-17.377-34.952-17.377-24.567 0-37.949 12.582-49.933 32.354v35.154c2.598 2.998 4.75 6.221 6.789 9.392 1.954 3.022 4.173 6.011 6.592 8.988 4.568 5.611 10.385 9.783 18.577 10.78-0.602 1.6 2.197 3.2 3.195 3.2h29.161c2.194-4.795 7.791-5.994 12.584-6.593 7.19-7.99 13.18-16.375 19.374-25.767v-7.59c0-2.998 0.997-4.795 3.195-4.993-1.598-13.584-6.582-27.374-14.582-37.549zM269.796 182.233c-2.997-3.397-6.183-6.798-9.189-10.385-3.183-3.801-6.593-7.185-10.187-10.389-7.392-6.584-15.579-10.983-25.367-10.983-15.175 0-27.91 6.238-36.947 15.979-8.938 9.631-14.582 23.367-14.582 37.549 0 5.392 1.958 10.207 4.394 14.982 2.354 4.613 4.395 8.988 5.393 14.38 2.597 2.197 5.59 4.192 8.988 5.591 3.397 1.401 5.594 3.994 6.988 7.589h9.787c-0.597 1.6 2 3.195 3.001 3.195h25.767c1.393 0 3.843-1.34 7.185-4.192 3.446-2.939 6.856-6.122 10.587-9.787 7.457-7.321 14.181-15.777 14.181-18.374v-35.154zM275.787 278.505c0-1.797 0.202-3.397 0.4-5.195 0.202-1.797 0.4-3.792 0.4-5.59l-3.595-5.195c-4.395 2.598-8.085 5.887-11.383 9.387-3.298 3.496-6.992 6.79-11.189 9.787-3.793 0-7.375 0.631-10.983 1.999-3.785 1.431-7.59 1.995-11.383 1.995-24.769 0-46.541-7.787-62.919-21.969-16.375-14.182-26.764-34.952-26.764-60.52 0-27.964 9.387-49.736 24.769-64.115 15.377-14.38 38.349-22.168 64.915-22.168 6.39 0 12.978 0.598 19.17 1.596 0.597 3.195 3.595 3.19 6.992 3.397 3.194 0.195 6.593 0.998 5.991 4.795v1.195c3.397 0.602 4.952 3.026 6.592 5.594 1.553 2.428 3.195 4.795 7.392 4.192h1.995v-15.98h31.959v159.987h-31.959l-0.4-3.195zM482.313 265.522c-18.342 12.829-42.347 19.377-64.118 19.377-4.592 0-8.963-1.043-12.78-3.2-3.974-2.238-8.39-3.194-12.986-3.194h-1.196c-2-1.798-3.99-3.6-5.792-5.591-1.991-2.202-4.197-3.397-6.592-3.995l-3.595 2.993v60.92h-31.959v-211.116h15.18c5.994 0 12.385-0.202 13.984-1.2l2.795 4.592c-0.598 2.598-0.998 9.387 3.195 9.387 1.797 0 3.038-0.771 3.995-2.395 1.043-1.773 2.057-2.894 3.397-3.797 11.449-7.688 26.764-13.18 40.946-13.18 26.563 0 48.139 10.183 63.312 27.164 14.986 16.771 22.969 40.146 22.969 65.71s-12.548 44.788-30.756 57.523z" />
<glyph unicode="&#xe614;" glyph-name="facebook-like" data-tags="facebook-like" d="M471.076 209.409c-4.68-1.526-5.536-5.618-2.176-9.261 9.067-9.825 10.468-24.126 1.858-35.022-3.807-4.813-8.623-8.118-14.050-10.654-5.263-2.459-5.755-7.262-1.489-11.21 5.964-5.527 8.988-13.545 5.14-23.825-2.759-7.344-7.276-13.417-13.991-17.661-1.698-1.070-3.542-1.985-5.436-2.649-4.020-1.403-5.154-6.293-2.327-9.611 2.522-2.95 5.404-5.864 6.93-9.32 3.296-7.471 1.206-14.542-3.159-21.113-5.423-8.164-12.639-14.26-21.668-17.925-2.786-1.134-6.156-1.125-9.261-1.12-22.701 0.031-45.402 0.264-68.108 0.3-38.040 0.060-76.094 0.151-114.138-0.091-8.323-0.054-15.061 3.251-21.75 7.363-3.902 2.386-7.827 4.74-11.793 7.016-0.761 0.433-1.762 0.606-2.655 0.62-4.968 0.077-9.943 0.192-14.906 0.032-2.208-0.064-2.709 0.678-2.704 2.764 0.064 23.051 0.036 46.103 0.036 69.15 0 27.942 0.018 55.879-0.036 83.815-0.005 1.812 0.456 2.887 2.030 3.938 7.681 5.118 15.462 10.125 22.769 15.749 3.619 2.791 6.524 6.638 9.347 10.313 12.671 16.541 24.622 33.605 35.172 51.566 9.77 16.627 18.891 33.632 28.437 50.397 1.986 3.483 2.65 6.989 2.623 10.936-0.123 19.965-0.031 39.934-0.096 59.899-0.005 1.835 0.524 2.946 2.121 3.921 11.082 6.771 22.205 6.93 33.373 0.314 0.874-0.514 1.68-1.425 2.113-2.345 7.868-16.587 14.628-33.578 19.241-51.393 2.222-8.573 2.968-17.187 1.876-25.988-0.965-7.832-1.512-15.726-2.7-23.517-1.515-9.921-3.374-19.796-5.309-29.649-1.639-8.34-3.601-16.618-5.408-24.923-0.068-0.323 0.026-0.679 0.059-1.325h3.278c48.416 0 96.837 0.010 145.253 0 12.901 0 22.046-9.756 21.82-22.665-0.221-12.598-9.409-23.266-20.317-26.826zM119.921 42.889c-7.609 0.232-13.573 6.397-13.504 14.301 0.077 7.931 6.233 14.155 14.096 13.977 7.858-0.178 14.341-6.269 13.869-14.433 0.396-7.722-6.898-14.074-14.46-13.846zM511.406 234.987c1.274 20.738-13.173 39.97-31.981 43.176-2.264 0.387-4.612 0.423-6.913 0.423-41.648 0.027-83.303 0.017-124.967 0.017h-3.369c1.653 6.643 3.192 12.93 4.795 19.2 3.36 13.139 5.814 26.416 6.889 39.962 1.361 17.019-2.045 33.223-7.79 49.091-5.341 14.755-11.825 28.998-19.978 42.415-1.443 2.377-3.72 4.535-6.101 5.983-6.848 4.144-14.524 5.942-22.447 6.784-0.92 0.091-1.83 0.305-2.75 0.464h-6.683c-3.028-0.505-6.092-0.861-9.074-1.557-10.704-2.472-19.327-8.154-25.624-17.187-0.81-1.166-1.339-2.8-1.329-4.216 0.168-21.499 0.473-43.003 0.642-64.506 0.018-1.798-0.396-3.77-1.184-5.377-15.726-32.335-33.624-63.35-56.179-91.478-4.271-5.327-9.124-10.194-14.16-15.776-1.868 4.813-5.555 3.81-8.874 3.82-51.061 0.119-102.127 0.119-153.194 0.441-9.47 0.059-15.835-3.825-20.043-11.952-0.105-0.201-0.346-0.333-0.523-0.492v-12.853c0.469-4.835 1.006-9.666 1.379-14.51 2.326-30.163 4.608-60.327 6.916-90.49 2.394-31.352 4.813-62.704 7.211-94.064 0.633-8.259 8.983-16.907 18.33-16.86 46.882 0.226 93.773 0.116 140.65 0.094 5.631 0 10.29 2.18 13.472 6.707 1.489 2.117 2.463 4.935 2.695 7.536 0.419 4.745 0.119 9.548 0.119 14.324 0.274 0.064 0.551 0.114 0.824 0.168 0.524-0.482 1.061-0.969 1.575-1.461 6.452-6.256 13.663-11.168 22.728-12.726 1.589-0.274 3.242-0.264 4.863-0.264 63.345-0.017 126.677-0.009 190.018-0.009 36.397 0 62.267 32.613 53.935 68.003-0.305 1.262-0.651 2.276 0.611 3.428 15.205 13.864 18.986 30.887 13.563 50.301-0.621 2.24-0.179 3.415 1.447 4.986 9.277 8.906 15.301 19.505 15.938 32.635 0.337 6.998-1.011 12.034-4.976 19.947 0.795 0.738 1.648 1.531 2.49 2.336 9.688 9.151 16.222 20.029 17.048 33.537z" />
<glyph unicode="&#xe615;" glyph-name="linkedin" data-tags="linkedin" d="M290.409-27.615l-117.47 0.623v346.539h117.47v-33.916c1.231 0.308 4.057 2.724 8.32 6.787 8.381 7.964 24.315 17.425 50.569 24.665 12.904 3.556 29.291 5.241 48.708 5.241 49.017 0 76.942-17.142 92.805-39.156 15.898-22.075 19.732-48.099 21.278-65.669v-245.113l-118.701 0.623v231.231c-0.93 3.394-4.631 10.789-12.644 17.878-8.012 7.095-20.041 12.952-36.072 12.952h-1.238c-17.57 0-31.084-6.238-39.767-12.329-8.888-6.243-13.259-14.491-13.259-17.885v-232.47zM117.446-27.615h-116.853l0.616 347.162h116.237v-347.162zM-0.024 411.735v2.772c0 16.031 5.869 31.132 16.031 42.55 9.878 11.091 24.358 18.494 40.395 18.494h1.233c16.955 0 31.754-6.472 43.159-17.57 11.412-11.098 18.501-26.519 18.501-43.474v-2.772c0-16.037-6.472-30.529-17.269-41.010-10.79-10.482-25.276-16.955-41.306-16.955h-0.623c-16.031 0-31.373 6.551-42.236 16.955-11.025 10.56-17.884 24.050-17.884 41.010z" />
<glyph unicode="&#xe616;" glyph-name="disqus" data-tags="disqus" d="M509.917 255.25c-3.166 7.834-4.094 15.978-6.062 23.679-2.089 8.154-3.488 15.989-6.062 23.68-14.872 44.644-39.529 80.716-71.588 108.493-40.632 35.207-100.493 65.767-177.333 61.678-13.24-0.701-47.889-7.143-47.889-7.143s-51.034-17.548-71.067-30.298c-61.388-39.1-109.047-103.064-116.199-192.758-3.507-43.963 5.039-83.225 18.174-114.549 1.804-4.303 5.979-9.943 6.055-13.764 0.053-2.582-2.777-7.543-4.399-11.56-9.595-23.699-19.538-47.106-28.637-69.398-1.551-3.784-3.985-7.658-3.861-11.565 32.062 3.001 66.749 8.154 98.579 13.221 44.959-36.257 111.413-69.403 196.603-57.825 14.404 1.957 29.429 6.425 42.956 10.466 40.752 12.166 73.878 35.589 99.681 62.231 32.879 33.942 59.189 76.597 68.291 133.265 0.639 3.956 2.188 7.415 2.757 11.022 3.12 20.121-1.577 41.634 0 61.125zM368.932 144.009c-12.706-14.667-29.057-25.617-48.466-33.046-40.241-15.392-95.51-9.113-151.449-8.808-0.916 80.033-0.916 163.93 0 243.964 48.881 0.882 114.648 5.811 152.551-8.259 38.185-14.18 66.291-43.504 74.35-85.362 8.865-46.081-5.788-84.027-26.986-108.489zM237.31 287.742c-0.792-0.305-1.346-0.859-1.651-1.65-0.559-40.207-1.646-85.721 0.548-125.012 55.518-5.783 95.101 14.061 94.171 64.98-0.163 8.931-2.739 14.262-3.856 23.131-11.985 30.603-43.295 41.882-89.212 38.551z" />
<glyph unicode="&#xe617;" glyph-name="flickr" data-tags="flickr" d="M277.166 223.861c0 31.488 12.848 61.262 33.856 82.635 20.896 21.246 49.488 34.804 80.743 34.804 32.909 0 63.507-12.255 85.231-32.674 21.603-20.303 35.047-49.012 35.047-82.873 0-35.047-13.5-64.877-34.808-85.946-21.308-21.077-49.488-33.151-78.842-33.151-32.202 0-62.509 13.264-85.007 34.57-22.484 21.307-36.22 50.436-36.22 82.635zM0 218.177c0 34.332 12.727 64.933 34.094 86.894 21.251 21.839 50.908 35.281 85.24 35.281 28.41 0 57.652-12.666 79.319-33.385 21.662-20.719 36.463-49.488 36.463-80.738 0-30.315-12.723-60.202-33.385-82.397-20.774-22.32-49.011-37.176-78.609-37.176-32.203 0-62.691 12.368-85.475 32.679-22.917 20.419-37.648 47.829-37.648 78.842z" />
<glyph unicode="&#xe618;" glyph-name="ebay" data-tags="ebay" horiz-adv-x="696" d="M438.832 161.303c-10.075-1.216-20.064-1.336-29.741 2.231-9.985 3.673-16.815 10.195-18.763 21.118-1.73 9.741 2.492 18.63 11.334 23.455 7.373 4.042 15.483 5.807 23.652 6.273 19.079 1.079 38.202 1.507 57.521 2.205 1.738-28.743-12.413-51.462-44.004-55.277zM304.582 177.112c-7.874-8.149-17.649-12.712-28.906-14.301-15.975-2.257-30.657 0.56-43.456 10.833-10.161 8.148-15.821 19.113-18.227 31.608-2.874 14.935-1.974 29.758 4.919 43.596 8.812 17.688 23.387 27.065 43.092 28.388 13.397 0.89 25.921-1.601 36.913-9.831 10.644-7.956 16.84-18.745 19.61-31.518 1.144-5.267 1.438-10.717 2.12-16.078-0.377-16.215-4.616-30.837-16.061-42.697zM140.853 234.458h-100.976c1.931 22.826 17.77 39.554 40.33 42.744 13.385 1.893 26.462 1.263 38.737-5.151 12.793-6.688 19.34-17.615 21.306-31.629 0.137-0.955 0.484-1.875 0.587-2.83 0.103-0.951 0.022-1.931 0.022-3.135zM589.040 88.471c8.723 17.397 17.6 34.712 26.423 52.053 25.662 50.404 51.314 100.81 76.967 151.222 0.665 1.315 1.265 2.668 2.062 4.346-12.186 0-23.701 0.065-35.23-0.103-1.042-0.017-2.513-1.246-3.038-2.287-9.454-18.792-18.794-37.641-28.174-56.472-9.791-19.658-19.582-39.298-29.566-59.332-0.722 1.365-1.287 2.406-1.821 3.464-18.498 36.981-37.025 73.938-55.398 110.974-1.477 2.971-3.125 3.897-6.341 3.832-11.043-0.205-22.086-0.072-33.123-0.089-1.019 0-2.034-0.107-3.438-0.189 2.689-5.155 5.156-9.896 8.041-15.418-1.207 0.659-1.563 0.762-1.786 0.993-8.585 8.971-19.353 13.877-31.197 16.815-15.954 3.952-32.135 4.35-48.363 2.693-12.931-1.319-25.536-4.098-37.020-10.649-13.65-7.785-21.576-19.294-23.293-35.316h36.45c2.861 10.474 7.382 16.181 16.772 19.563 16.010 5.763 32.135 5.37 47.823-1.122 13.616-5.639 18.985-20.797 16.763-34.156-7.129 0-14.284 0.004-21.435 0-19.756-0.022-39.529 0.051-59.036-3.713-12.952-2.5-25.527-6.226-35.389-15.569-3.956-3.75-6.954-8.508-10.122-12.464 0.137 0.813 0.625 2.236 0.56 3.623-0.394 8.55-0.154 17.217-1.512 25.609-4.243 26.131-18.63 45.044-42.454 56.592-15.414 7.462-31.676 9.715-48.748 7.972-11.762-1.212-23.075-3.683-33.166-9.792-6.714-4.055-12.704-9.296-18.882-13.911v85.022h-35.094v-125.969c-0.714 1.833-1.006 3.695-1.387 5.549-3.584 17.239-11.466 31.894-25.631 42.809-15.003 11.565-32.507 15.748-50.91 16.789-12.913 0.724-25.763-0.399-38.36-3.567-24.038-6.072-42.123-19.461-51.453-42.971-7.159-18.035-7.96-36.844-4.723-55.787 4.825-28.285 21.349-46.889 48.298-56.026 15.046-5.095 30.654-6.487 46.594-5.519 11.757 0.724 23.168 2.569 34.173 6.688 15.315 5.733 27.999 14.716 35.093 30.010 1.923 4.14 3.031 8.649 4.702 13.556-12.315 0-23.584 0.068-34.849-0.107-0.985-0.017-2.389-1.421-2.847-2.5-3.001-7.009-7.634-12.618-14.134-16.536-12.070-7.288-25.212-8.885-38.977-6.983-20.102 2.791-33.92 13.543-40.783 32.674-1.807 5.031-2.377 10.507-3.554 15.971h138.835c0-4.509 0.086-8.846-0.017-13.179-0.402-17.285-0.844-34.562-1.34-51.844-0.069-2.286 1.058-2.548 2.907-2.531 6.795 0.055 13.59 0.022 20.386 0.022h11.5c0.471 6.723 0.907 13.051 1.417 20.219 16.541-18.018 36.969-24.774 59.568-25.772 7.369-0.329 14.926 0.638 22.201 2.025 17.577 3.344 32.456 11.745 44.248 25.365 6.671 7.694 11.377 16.51 15.012 26.015-0.325-7.352 0.437-14.481 3.396-21.221 6.521-14.858 18.622-23.182 33.505-27.934 15.171-4.851 30.743-4.748 46.401-3.075 16.416 1.748 30.867 7.755 42.826 19.349 1.931 1.875 3.905 3.729 5.875 5.605 0.48-6.757 0.954-13.471 1.421-20.133h32.472c-0.364 7.527-0.968 14.759-1.006 22.004-0.137 21.721 0.056 43.438-0.098 65.159-0.072 10.229-0.659 20.459-1.010 30.692-0.184-0.784 0.411-1.632 0.886-2.535 19.769-37.268 39.495-74.563 59.354-111.781 1.34-2.513 1.16-4.299-0.103-6.646-7.922-14.823-15.722-29.702-23.545-44.569-1.755-3.336-3.468-6.71-5.408-10.456 1.764-0.099 2.826-0.188 3.888-0.188 10.559-0.017 21.109 0.068 31.668-0.068 2.654-0.038 4.076 0.81 5.285 3.202z" />
<glyph unicode="&#xe619;" glyph-name="deviant-art" data-tags="deviant-art" horiz-adv-x="672" d="M103.6 140c-3.566 9.324-5.483 18.916-5.483 28.773 0 3.566 0.183 7.418 0.824 11.241 4.018 23.863 17.269 53.442 61.392 81.946l45.492-93.188-102.225-28.773zM388.623 280.322c-14.521 3.016-29.866 5.008-46.047 5.483-2.462 0.069-5.197 0-7.664 0-13.709 0-27.954-1.099-42.757-3.566l71.248-144.432 308.596 87.698c-23.846 32.069-56.19 59.194-97.014 80.853-17.545 9.306-37.549 18.087-60.294 26.036-45.491 15.895-101.4 23.834-168.001 23.565-1.368 0-3.011 0.011-4.385 0-35.081-0.263-73.435-3.887-114.829-10.961-1.911-0.326-3.016-0.549-3.566-0.818-0.55-0.275-1.093-0.275-1.917-0.275l-32.614 66.045-96.466-12.329 39.733-78.385c-50.7-21.103-82.764-49.053-103.044-79.474-20.285-30.421-27.834-63.041-29.328-92.912-0.149-3.017-0.275-6.301-0.275-9.594 0-32.058 6.582-65.227 20.010-99.209l308.592 89.072-84.681 171.288c19.18 5.758 37.822 9.295 55.634 10.692 10.142 0.795 20.279 1.368 30.146 1.368 7.401 0 14.521-0.338 21.647-0.819 33.157-2.254 63.545-9.157 89.067-17.543 29.568-9.707 57.014-22.746 82.502-39.19l-104.971-27.411-29.323 54.816z" />
<glyph unicode="&#xe61a;" glyph-name="digg" data-tags="digg" horiz-adv-x="608" d="M454.801 325.010v-202.072h84.868c2.646 0 3.598-1.050 3.367-3.144v-23.558h-88.235v-59.678h152.246v288.452h-152.246zM272.572 122.94h87.758c0.235-0.789 0.235-1.31 0-1.834-0.721-1.045 0.014-2.139 1.918-1.31 1.692 0.741 1.678 0 1.437-1.57-0.24-0.785-0.24-1.57-0.24-2.355v-19.634h-90.873v-59.678h151.772v288.452h-151.772v-202.072zM-0.995 122.938h151.768v288.452h-60.904v-82.716c0-2.094 0.245-4.448-2.874-3.664h-87.989v-202.072zM181.222 122.938h60.899v202.072h-60.899v-202.072zM543.037 182.356h-27.337v83.236h27.337v-83.236zM89.868 182.356h-27.090v83.236h27.090v-83.236zM333.476 265.594h29.969v-83.236h-24.216c-0.24 0.26-0.721 0.26-1.437 0-1.202-0.784-2.202 0.015-1.443 2.094 0.682 1.849-0.716 1.829-1.678 1.57-0.481-0.265-0.957-0.265-1.197-0.265v79.837zM181.222 351.712h60.899v59.678h-60.899v-59.678z" />
<glyph unicode="&#xe61b;" glyph-name="blip" data-tags="blip" horiz-adv-x="640" d="M606.87 271.438c-20.207 19.953-48.692 32.37-79.56 32.37-43.171 0-71.529-16.559-89.346-42.915-17.822-26.35-25.099-61.743-25.099-98.888 0-20.578 0.75-40.909 2.002-61.233 1.259-20.337 2.014-40.664 2.014-61.243 0-13.805-0.505-27.353-1.509-40.659h72.034v86.335c12.546-4.014 25.852-6.021 39.905-6.021 31.372 0 59.793 12.238 80.059 32.875 20.147 20.52 32.631 48.692 32.631 80.065 0 31.873-12.928 59.358-33.129 79.31zM326.274 215.467c0-22.337 0.223-44.424 1.004-66.254 0.728-20.337 0.505-42.166-0.25-66.012h71.779v215.843h-69.77c-2.007-28.109-2.76-55.467-2.76-83.575zM235.921 266.164c0-30.369 0.223-60.984 0.755-91.358 0.228-13.051 0.25-26.1 0.25-39.151 0-17.314-0.25-34.884-0.5-52.452h72.026v300.165h-70.020c-2.006-38.896-2.512-78.055-2.512-117.205zM526.805 151.218c-22.835 0-37.395 18.322-37.395 40.404 0 23.339 17.064 38.149 39.905 38.149 22.088 0 37.147-14.303 37.147-36.389 0-22.835-15.563-42.161-39.657-42.161zM109.93 151.218c-23.092 0-37.9 16.062-37.9 38.901 0 25.348 16.311 39.65 41.164 39.65 21.078 0 38.895-15.556 38.895-37.645 0-23.844-18.068-40.91-42.161-40.91zM111.936 304.313c-13.3 0-26.599-2.51-39.905-7.279l-0.5 20.578c-0.271 11.033 0.129 22.092 0.755 32.88 0.129 2.269 0.25 4.262 0.25 6.526 0 8.786-0.754 17.568-2.51 26.349h-68.019l-2.006-3.010v-163.89c0-36.389 7.088-70.988 24.093-96.121 17.129-25.316 45.176-42.166 86.336-42.166 30.874 0 59.040 11.983 80.065 31.624 20.887 19.511 34.134 46.935 34.134 78.309 0 30.869-12.297 59.481-32.875 81.064-20.584 21.583-48.941 35.139-79.816 35.139zM481.129 405.959c0 10.296-4.704 21.391-12.296 29.615-7.469 8.092-17.818 13.556-28.863 13.556-26.103 0-45.176-14.053-45.176-41.414 0-24.848 17.064-46.931 43.171-46.931 26.855 0 43.165 19.072 43.165 45.172z" />
<glyph unicode="&#xe61c;" glyph-name="bandcamp" data-tags="bandcamp" horiz-adv-x="616" d="M580.697 160.622c11.114-0.975 22.385-0.233 35.043-0.233-3.745-17.824-9.284-33.659-19.099-47.834-9.253-13.339-21.462-23.105-36.597-28.971-29.415-11.409-59.063-11.216-88.301 0.084-24.080 9.291-40.726 26.709-50.907 50.447-8.177 19.076-11.241 40.796-9.781 61.906 2.019 29.441 12.874 57.703 31.435 75.928 23.135 22.729 51.878 29.436 83.158 27.688 26.307-1.469 50.506-8.672 69.188-28.604 12.048-12.85 17.869-28.549 21.164-47.275-15.537 0-28.857-0.282-42.141 0.262-2.404 0.095-6.060 3.129-6.796 5.529-6.164 20.101-19.808 30.995-40.294 33.341-23.778 2.718-45.117-3.202-56.793-25.287-6.128-11.588-10.082-23.367-11.899-35.217-3.327-21.591 0.519-43.399 11.83-64.647 11.389-21.413 31.391-27.995 54.672-25.001 21.644 2.796 34.772 16.146 40.404 36.331 2.556 9.157 6.237 12.375 15.715 11.553zM278.861 112.171l-2.382 0.102c-24.487 2.577-39.715 14.13-48.728 34.543-12.023 27.214-11.652 55.411-0.317 82.808 9.018 21.803 26.347 32.757 50.051 33.772 21.907 0.935 38.742-7.766 50.507-26.085 7.916-12.347 11.935-25.817 14.466-43.65l0.711-6.822c-2.921-12.874-4.43-26.283-9.068-38.493-8.574-22.586-25.214-35.326-50.339-36.158-2.808-0.092-5.529-0.045-4.901-0.017zM265.16 296.619c-15.201-4.272-29.1-12.681-39.524-25.749-0.697-0.871-2.088-1.212-4.479-2.534v107.443c-8.459 0.044-12.236-0.010-12.236-0.010s-22.462-0.302-208.922 0.025v-292.532c6.88 2.995 8.424 5.692 8.424 5.692 52.709 92.168 105.177 184.476 157.761 276.712 1.48 2.599 3.911 4.658 5.9 6.979 0.821-0.386 1.637-0.767 2.46-1.148v-289.508h44.819v23.491c10.533-7.603 19.636-16.947 30.713-21.457 12.691-5.168 27.050-7.771 40.825-8.435 27.050-1.301 51.512 6.514 69.712 27.916 19.57 23.006 28.916 56.654 27.822 89.456-0.846 25.387-7.964 50.274-21.467 69.321-22.026 31.054-65.623 44.498-101.81 34.337z" />
<glyph unicode="&#xe61d;" glyph-name="app-net" data-tags="app-net" d="M68.782 236.127c0.697 24.489 3.531 48.659 12.271 71.805 8.377 22.19 22.102 39.604 44.133 49.602 10.784 4.893 22.148 7.234 33.122 7.28 25.846 0.116 45.067-11.193 60.534-29.921 12.647-15.317 21.311-32.922 28.778-51.172 11.085-27.11 18.924-55.289 27.393-83.268 1.212-4.009 0.762-7.132-1.157-10.76-11.95-22.631-24.661-44.756-41.243-64.404-11.638-13.79-24.74-25.832-41.020-34.070-36.221-18.352-82.278-4.024-103.079 32.030-8.544 14.812-13.242 30.892-16.081 47.594-3.675 21.623-4.279 43.441-3.653 65.282zM1.688 255.71c-2.095-26.906-1.403-53.792 1.788-80.587 2.974-24.94 8.451-49.286 18.036-72.582 12.159-29.572 29.684-55.21 55.916-74.072 32.192-23.161 68.037-31.827 107.232-25.284 21.112 3.522 40.315 12.089 58.035 24.015 24.188 16.29 43.668 37.3 60.715 60.729 1.993 2.732 3.945 5.501 6.263 8.749 0.683-1.375 1.046-2.1 1.399-2.82 3.699-7.513 7.127-15.17 11.132-22.514 10.5-19.235 23.221-36.76 40.802-50.243 22.989-17.632 48.849-23.96 77.195-17.901 23.676 5.060 41.425 19.128 54.551 39.13 10.171 15.495 16.564 32.383 16.812 51.159 0.139 10.305-5.163 15.945-15.457 16.214-11.175 0.298-22.373 0.33-33.537-0.024-9.19-0.293-16.54-4.195-20.754-12.865-0.901-1.859-1.969-3.643-3.039-5.404-2.379-3.921-5.872-6.407-10.305-7.406-5.115-1.143-10.268-1.209-15.341 0.315-10.719 3.234-18.361 10.608-24.969 19.128-12.837 16.563-20.754 35.575-27.779 55.145-4.219 11.745-2.909 22.273 2.51 33.122 4.66 9.329 8.595 19.030 12.586 28.671 17.887 43.171 33.763 87.101 48.129 131.559 8.317 25.744 15.894 51.735 23.547 77.692 2.825 9.576-1.715 16.419-11.662 16.707-18.19 0.539-36.406 0.32-54.61 0.2-6.454-0.046-11.397-3.369-14.017-9.19-2.829-6.291-5.431-12.759-7.397-19.356-11.039-37.043-22.692-73.878-36.351-110.047-1.793-4.739-3.638-9.455-5.668-14.728-0.642 1.38-1.009 2.1-1.32 2.848-5.445 13.070-10.482 26.32-16.401 39.166-11.666 25.298-25.893 49.040-45.165 69.412-23.519 24.871-51.693 40.226-86.454 42.103-25.911 1.399-50.424-3.674-73.302-15.954-28.885-15.495-49.532-38.981-64.632-67.656-17.702-33.611-25.573-69.901-28.49-107.432z" />
<glyph unicode="&#xe61e;" glyph-name="aim" data-tags="aim" d="M444.313 40.771c-7.74 12.592-15.115 24.189-23.554 35.863-4.134 5.723-8.907 12.262-13.65 19.536-15.334 23.505-30.509 35.33-41.49 44.697-10.972 9.365-18.199 15.521-18.199 28.103 0 0.8-0.033 1.611 0.272 2.671 0.241 0.815 0.272 1.878 0.272 2.944 1.872 5.889 4.539 10.183 8.027 13.115 6.678 5.627 16.043 8.368 25.964 10.171 4.8 0.875 9.894 2.411 14.977 4.55l50.857 21.41-26.231 66.377c-13.915-2.411-26.002-5.504-36.397-9.371-10.481-3.894-21.409-5.889-33.192-5.889h-5.611c-1.877 0-3.76 0.213-5.899 0.538-13.644 2.080-28.897 6.689-45.763 13.649-16.855 6.961-35.325 14.183-55.13 21.41-12.583-13.111-21.148-23.015-28.103-33.453-6.96-10.439-12.38-20.519-18.471-35.598-5.69-14.113-7.5-32.115-8.822-50.046-1.355-18.204-2.337-35.629-6.7-48.179-6.337-18.225-29.379-41.033-55.129-59.145-5.835-4.101-11.463-7.334-16.599-9.637-10.395-4.656-20.604-7.761-31.842-10.972-5.627-1.606-11.782-3.744-18.471-6.689l28.909-88.857c19.532 5.086 35.325 9.635 50.046 15.524 14.716 5.882 28.637 12.837 46.030 23.813 15.266 9.632 31.848 29.709 46.841 46.841 14.987 17.127 28.364 32.115 38.002 32.115 3.75 0 8.331-1.264 13.915-4.283 10.753-5.814 23.399-14.839 37.202-25.693 13.771-10.827 26.365-22.076 35.064-30.776s16.219-18.087 23.553-28.642c3.643-5.243 8.033-11.237 13.106-17.93l68.528 40.418c-4.554 8.027-8.544 15.271-12.315 21.41zM315.043 321.527c22.209 0 41.214 8.833 55.929 23.548 14.732 14.721 23.554 34.258 23.554 55.94 0 21.676-8.822 41.486-23.81 55.668-14.993 14.188-35.069 23.286-56.745 23.286-21.681 0-41.486-10.171-54.868-24.893-13.376-14.721-22.209-34.259-22.209-54.601 0-21.676 8.625-41.417 22.737-55.668 13.99-14.119 33.736-23.281 55.411-23.281z" />
<glyph unicode="&#xe61f;" glyph-name="amazon" data-tags="amazon" d="M447.54 65.454c-2.575-1.144-4.878-1.906-6.857-2.289-60.685-20.227-121.104-34.558-179.656-34.558-93.681 0-181.664 25.12-253.344 66.549-3.438 1.983-5.712 1.712-7.143-0.286-0.281-0.859-0.567-1.426-0.567-1.998 0-1.43 0.936-2.483 2.565-4.002 67.204-62.461 153.669-97.681 253.353-97.681 29.412 0 62.513 4.418 94.54 12.57 31.953 8.127 64.696 19.306 90.252 37.127 7.463 3.070 14.567 7.997 21.711 15.139 4.564 2.856 5.655 5.95 3.142 9.426-4.927 6.808-12.851 2.284-17.997 0zM508.945 99.442c-1.144 1.43-3.925 3.084-8.279 4.286-9.082 2.512-19.426 3.429-26.284 3.429-3.705 0-7.435-0.204-11.139-0.572-7.721-0.771-15.135-2.295-22.559-4.286-4.282-1.149-8.307-2.813-11.707-4.854-3.743-2.24-7.143-4.282-10.571-6.285-2.284-1.712-3.428-3.142-3.428-4.568 0-1.998 1.716-2.856 5.146-2.856 2.565 0.286 5.708 0.558 9.136 0.859 3.147 0.272 7.143 0.567 11.425 1.425 8.277 0.859 16.565 1.144 24.567 1.144h2.851c8.855 0 14.567-1.717 16.851-5.427 3.429-4.572 1.43-16.565-1.998-29.421-3.418-12.851-8.86-27.133-11.992-34.844-2.007-2.003-1.726-3.452 0.567-4.286 0.844-0.306 1.43-0.286 1.716-0.286 1.421 0 2.861 0.859 4.277 2.289 11.716 9.137 20.28 22.846 25.991 36.555 5.724 13.714 8.568 27.709 8.568 37.132v2.284c0 3.714-1.712 6.857-3.139 8.283zM291.591 223.973c-7.143-13.423-17.132-21.993-30.565-25.707h-7.138c-22.565 0-33.704 15.707-33.704 39.702 0 30.561 18.365 45.114 40.842 51.409 6.091 1.707 12.57 3.142 19.994 3.142h20.848v-10.567c0-22.851 2.295-39.989-10.276-57.979zM301.868 336.79c-11.992 0-25.639-1.585-40.841-3.424-22.511-2.73-43.417-5.999-61.403-16.284-36.559-13.996-59.119-43.132-59.119-89.113 0-27.704 9.141-49.125 23.981-63.121 14.863-13.995 35.425-21.706 58.552-21.706 15.716 0 26.948 1.959 37.99 5.427 18.103 5.679 32.283 15.135 52.558 34.558 2.565-3.709 4.569-6.853 5.994-9.423 1.43-2.57 3.486-5.097 5.712-7.711 4.351-5.097 10.005-10.858 19.428-18.568 1.998-0.858 4.282-1.139 6.847-1.139 2.575 0 4.292 0.853 5.427 2.284 11.716 9.995 30.853 25.993 41.991 36.274 3.709 3.429 4.286 7.997 1.712 13.423-10.562 13.423-21.983 25.134-21.983 50.269v112.822c0 8.563-0.476 16.866-1.727 25.134-2.459 16.294-8.418 30.974-21.697 42.84-21.565 19.267-55.696 27.418-83.124 27.418h-11.139c-24.029 0-48.577-7.385-68.837-19.989-20.581-12.817-36.419-33.108-42.263-63.697-1.581-8.254 3.138-10.853 6.847-12.279l53.988-5.141c5.427 0 7.992 5.712 9.422 9.422 5.431 21.706 21.425 31.419 40.842 33.704h4.577c11.135 0 23.147-5.325 29.416-13.996 8.594-11.901 6.847-26.847 6.847-40.269v-7.715z" />
<glyph unicode="&#xe620;" glyph-name="android" data-tags="android" d="M396.846 147.382v161.673h-281.624c-0.25-0.25-0.496-1.253-0.496-2.501v-159.173c0-9.243-0.228-18.742-0.992-28.486-0.24-2.997-0.251-5.744-0.251-7.995 0-6.245 0.459-12.005 1.739-16.741 5.712-21.003 24.994-24.736 42.743-24.736 4.24 0 8.49 0.245 12.987 0.747v-41.478c0-6.496-0.288-13.243-0.496-19.99-0.042-1.248 0-2.25-0.25-3.498 0-10.998 2.746-20.74 10.24-27.237 7.499-6.497 15.989-9.462 23.739-9.242 1.248 0.029 2.25 0 3.248 0.248 5.003 0.243 9.888 1.798 14.251 5 14.38 10.548 12.241 29.983 12.241 54.719v21.238c0 6.998 0.25 13.744 1.002 20.241h41.98v-41.478c0-7.248-0.293-14.241-0.502-21.489-0.043-1.248 0-2.501-0.25-3.75 0-5.75 0.864-10.699 2.502-15.243 5.365-14.95 19.739-20.238 29.478-20.238 7.003 0 15.813 1.937 22.993 9.739 7.062 7.688 9.738 15.496 9.738 26.243 0 1.248 0 2.747-0.24 3.995-0.512 6.998-0.764 13.995-0.764 20.741v21.238c0 6.998 0.25 13.744 1.002 20.241 4.251-0.502 8.502-0.747 12.251-0.747 9.248 0 17.238 1.259 23.99 3.995 19.728 8.006 20.731 24.988 20.731 38.982 0 2-0.106 4.24-0.24 6.496-0.62 9.739-0.752 19.243-0.752 28.486zM472.555 216.349c0 5.248 0.25 11.494 0.502 18.993 0.25 7.494 0.502 15.244 0.502 23.238 0 15.738-0.666 30.113-3.755 37.728-4.918 12.134-18.736 17.526-28.976 17.745-1.498 0.032-3.002-0.064-4.752-0.25-12.24-1.312-22.241-11.243-25.49-18.993-1.253-4.747-2-9.995-2-15.739 0-1.253-0.043-2.25 0-3.499 0.219-6.998 0.502-13.494 0.502-19.745v-103.197c0-6.245 0.656-11.286 2.497-15.493 5.158-11.781 17.243-18.241 27.99-18.241 2.24 0 4.721 0.368 7.243 0.752 5.728 0.863 19.072 7.712 22.988 17.488 3.089 7.712 3.755 22.741 3.755 38.481 0 7.75-0.25 15.493-0.502 22.742-0.25 7.243-0.502 13.243-0.502 17.989zM70.501 314.053c-1.749-0.038-3.237-0.038-4.752-0.25-5.488-0.784-10.534-2.698-14.987-6.245-9.040-7.2-12.245-14.747-12.245-27.488 0-0.752-0.032-1.75 0-2.747 0.218-7.498 0.502-14.747 0.502-21.494v-102.696c0-6.747 0.843-12.203 2.496-15.995 5.093-11.702 16.992-17.488 28.737-17.488s23.493 5.493 28.731 16.49c-1.237 0-1.739 0.25-0.998 0.998h1.498c1.75 3.75 2.502 9.248 2.502 16.246v101.448c0 8.747 0.282 16.24 0.501 22.491 0.026 0.998 0 1.995 0 2.998 0 4.998-0.752 9.493-2 13.494-6 13.989-18.742 20.454-29.985 20.241zM320.874 371.025c-7.74 0-11.489 5.494-12.241 10.741v1.498c0 4.251 2.011 10.171 9.75 11.249 1.264 0.176 2.491 0.496 3.75 0.496 5.243 0 9.745-4.495 9.989-10.49 0.25-6.251-4.495-13.494-11.248-13.494zM197.185 372.524c-6.971-2.794-14.806 0.464-17.99 7.248-0.565 1.216-0.752 2.246-0.752 3.493 0 2.753 0.998 5.499 3.249 8.748 1.504 1.248 3.504 2.25 5.75 2.501 0.752 0.25 1.504 0.25 2.25 0.25 3.002 0 7.243-0.752 10.993-4.501 3.248-3.995 3.269-15.036-3.499-17.739zM374.853 391.015c-12.918 17.798-30.741 31.233-49.728 42.977 2.25 2.752 4.363 5.957 5.75 9.744 1.354 3.712 2.752 6.998 4.502 9.75 0 0.246 0.49 0.998 1.498 1.995 2 3.248 4.741 8.246 6.741 12.245 2 3.248 7.738 9.723 0.998 11.745-0.757 0.229-1.248 0.25-1.749 0.25-1.75 0-3.072-0.72-3.739-2.502-0.842-2.219-1.509-4.245-2.25-5.995-3.248-5.75-6.752-11.493-10.25-17.739-3.498-6.25-6.998-11.745-10.24-16.993-14.998 8.993-37.729 13.243-60.471 13.243-22.988 0-46.481-4-62.221-12.245-6.25 10.246-13.75 23.489-18.987 33.734-1.264 1.75-2.272 3.995-3.253 6.245-0.758 1.745-1.75 2.502-3.249 2.502-0.752 0-1.499-0.25-2.25-0.502-4.752-3.248-0.998-8.496 1.002-11.744 2.746-5.75 6-11.494 9.738-17.244 3.75-5.744 6.998-11.493 9.75-16.992-19.989-10.993-37.728-24.737-50.721-42.977-12.998-18.241-21.237-41.228-21.989-69.217h283.613c-1.248 29.238-9.669 52.033-22.491 69.719z" />
<glyph unicode="&#xe621;" glyph-name="angie" data-tags="angie" d="M386.416 208.16c-50.706-0.368-164.507-0.084-171.968-0.084-7.905-19.017-15.854-38.155-25.208-60.665-8.458 22.001-16.251 41.603-23.575 60.661-17.752-0.156-20.415-0.14-37.935-0.072-22.477 0.088-41.002 7.793-56.421 23.887-24.873 25.962-18.293 74.517 14.713 93.35 13.904 7.937 28.865 11.769 44.579 11.826 83.386 0.313 166.782 0.304 250.169 0 14.533-0.052 28.664-3.135 41.647-10.24 17.807-9.736 27.735-24.496 31.33-43.369 7.55-39.497-23.764-74.981-67.331-75.294zM388.146 382.703c-89.978 0.004-171.127 0-263.652-0.292-10.508-0.036-21.373-0.781-31.451-3.384-61.915-15.99-94.84-67.733-84.704-126.26 7.637-44.098 36.514-73.284 82.001-86.803 10.552-3.14 19.931-2.979 31.548-3.043 0 0 4.621 0.016 12.711-0.065 3.040-6.599 4.569-9.894 4.569-9.894 1.357-2.94 2.916-5.791 4.425-8.662 13.623-25.841 41.675-85.291 44.49-84.714 17.216 32.586 39.374 71.6 56.044 103.139h14.585c46.197 0.024 92.393-0.008 138.585 0.14 6.131 0.024 12.458 0.164 18.341 1.582 23.315 5.606 43.175 16.699 59.808 33.687 27.8 28.381 34.868 62.772 27.149 98.624-11.741 54.478-62.666 85.946-114.448 85.946z" />
<glyph unicode="&#xe622;" glyph-name="app-store" data-tags="app-store" d="M478.7 48.653c-3.959 8.552-10.889 13.259-20.363 13.259h-0.236c-4.498 0-10.178-1.897-16.805-5.449-0.951-0.942-2.211-2.292-3.789-4.024-3.397-3.712-4.024-7.81-4.024-10.889 0-1.654 0.173-3.325 0.473-4.976 0.646-3.558 2.336-7.356 5.212-11.593 6.594-9.73 17.043-14.918 26.513-19.184 9.469-4.262 17.521-7.81 18.702-13.49 0.473 6.159 0.715 12.077 0.715 17.515 0 9.711-0.69 18.003-2.134 25.339-0.927 4.74-2.303 9.257-4.262 13.495zM56.326 59.306c-4.175 2.359-10.184-0.241-10.184-5.208l-5.916-47.116c0-4.972 3.788-8.759 8.759-3.784l39.776 25.567c1.888 1.897 2.843 3.784 2.843 5.685 0 2.365-1.424 4.734-4.261 7.336l-31.015 17.521zM249.282 319.272l-30.069 17.515c-6.631 2.602-13.49 0.709-16.101-4.968l-141.107-243.39c-0.709-1.897-1.313-3.798-1.183-5.685-0.245-1.178-0.029-2.139 0.236-3.31 0.691-3.089 2.727-5.217 5.923-7.104l30.064-17.762c6.391-2.837 13.046-0.12 15.865 4.74l141.108 243.386c2.601 5.917 1.684 12.839-4.734 16.58zM447.923 70.905c5.921 4.734 7.578 11.603 4.498 18.939l-14.678 27.704c-1.447 2.727-4.059 4.43-6.868 5.921-1.221 0.642-2.602 0.942-4.024 0.942-1.656 0-3.094-0.443-4.498-1.178l-17.521-9.238c-3.658-1.925-6.153-4.025-6.863-7.578-0.232-0.709-0.232-1.65-0.232-2.361 0-2.375 0.942-4.74 2.834-6.873l16.812-28.645c5.444-7.341 12.553-7.81 17.993-4.74l12.548 7.104zM417.144 143.594c3.803 4.724 4.729 11.125 0.236 17.519-1.183 2.124-3.644 7.168-7.578 14.914-3.88 7.649-8.697 16.844-14.205 27.462-11.067 21.343-24.731 47.194-38.356 71.736-6.738 12.149-13.167 23.726-19.18 34.803-6.061 11.183-11.733 20.272-16.568 27.709-7.481 11.506-15.030 24.451-23.201 38.829-16.212 28.483-31.222 53.757-42.618 69.13-4.943 6.656-8.524 9.937-11.125 9.937-0.468 0-0.951 0-1.188-0.231-2.127-0.947-3.074-3.558-3.074-7.819 0-0.704-0.067-1.656 0-2.602 0.406-5.681 2.153-12.776 4.734-21.068 5.232-16.805 13.871-38.057 22.492-58.010 8.663-20.063 17.409-38.767 22.964-51.137 2.732-6.101 6.202-14.662 11.13-25.571 5.019-11.106 10.276-23.158 16.093-36.223 5.787-12.975 11.579-26.531 17.762-40.493 12.283-27.714 24.151-51.132 33.144-66.76 9.007-15.624 17.317-18.563 23.206-16.337 2.88 1.085 6.632 2.37 11.129 4.024 4.493 1.66 10.194 5.2 14.205 10.185zM500.955 253.69h-109.144c6.395-11.603 12.548-22.728 17.988-33.627 5.449-10.888 10.421-20.122 14.923-27.457 2.602-5.923 4.816-10.372 6.863-13.973 1.978-3.505 3.079-6.155 3.789-7.815 1.178-1.178 2.143-2.837 2.365-4.729 0.255-2.134 0.714-3.794 1.423-4.977h61.793c7.343 0 11.128 3.789 11.128 11.13v70.313c0 5.444-3.787 11.136-11.128 11.136zM258.044 253.69l-53.512-92.577h127.618l-43.569 92.577h-30.538zM134.69 253.69h-123.587c-4.977 0-11.13-6.163-11.13-11.136v-70.313c0-6.868 6.153-11.13 11.13-11.13h70.317l53.27 92.577z" />
<glyph unicode="&#xe623;" glyph-name="500-alt" data-tags="500-alt" d="M392.532 166.037c-9.14 0-19.113 1.184-27.444 4.474-9.161 3.623-17.469 7.945-25.002 13.010-14.832 9.976-29.685 24.599-41.877 39.031 5.889 6.304 11.995 12.004 19.108 19.516 7.324 7.739 14.089 13.747 21.95 20.129 7.18 5.819 15.363 10.733 24.199 14.84 8.656 4.026 17.485 6.3 27.032 6.3 34.356 0 55.918-26.832 55.918-59.564 0-32.531-19.522-57.738-53.887-57.738zM195.75 202.63c-7.327-7.32-14.692-12.738-22.571-18.294-7.973-5.625-15.791-9.721-25.409-13.418-8.886-3.421-17.695-4.881-26.231-4.881h-0.605c-17.081 0-30.639 5.152-40.051 15.654-9.91 11.053-14.569 24.8-14.635 41.269-0.135 30.088 19.919 60.377 53.264 60.377 8.532 0 17.139-2.336 26.222-6.3 8.611-3.762 17.271-8.549 25.816-14.841 16.863-12.414 31.716-28.056 42.901-39.645-5.691-6.505-11.999-13.212-18.702-19.923zM391.723 352.868c-15.243 0-28.899-2.159-41.067-6.711-12.834-4.799-24.743-10.856-35.981-18.702-10.309-7.2-20.849-15.959-30.692-26.634-9.672-10.47-18.505-20.33-27.452-31.51-9.548 10.774-18.948 21.506-28.464 31.51-10.001 10.527-20.215 19.385-30.697 26.634-11.275 7.797-22.929 13.936-35.779 18.702-12.361 4.584-26.433 6.711-42.079 6.711-37.206 0-66.78-13.356-88.233-37-20.421-22.506-31.313-54.077-31.313-91.279 0-18.097 2.385-35.039 8.339-51.233 5.638-15.325 13.307-29.171 24.195-40.661 11.069-11.69 23.645-20.412 38.624-27.444 14.906-6.999 31.918-10.165 50.821-10.165 32.329 0 54.214 9.553 76.234 24.191 10.716 7.118 20.030 15.351 29.483 25.005 9.252 9.454 18.907 19.515 28.867 30.088 8.948-10.572 18.044-20.38 27.851-30.088 9.713-9.606 20.112-17.793 31.305-25.005 21.95-14.137 46.149-24.281 75.634-24.191 37.202 0.111 68.437 14.519 88.846 38.016 21.072 24.277 31.912 56.923 31.912 92.904 0 35.174-11.498 67.397-31.912 90.268-20.248 22.666-50.221 36.593-88.442 36.593z" />
<glyph unicode="&#xe624;" glyph-name="behance" data-tags="behance" d="M212.169 236.506c9.81 5.22 18.168 10.024 23.183 18.168 20.883 22.767 20.577 68.227 1.255 94.405-16.599 22.487-44.075 33.836-82.924 33.836h-153.713v-161.525c0.682-0.892 1.425-1.744 2.090-2.645l-2.090-0.594v-153.113h142.863c17.329 0 31.742 1.25 45.321 3.55 13.359 4.385 25.692 9.395 35.501 17.543 9.184 6.055 16.852 13.902 23.183 24.227 9.544 15.576 14.208 32.582 14.208 50.544 0 18.378-4.808 33.832-12.953 46.99-8.149 13.159-21.093 22.142-35.921 28.617zM435.015 126.225c-9.149-6.103-19.842-10.649-33.416-10.649-12.529 0-23.808 2.925-32.372 9.399-15.043 8.564-23.598 24.017-23.598 47.41h166.45c0 20.048-1.442 33.416-3.122 44.904-2.711 18.382-8.989 33.281-17.963 47.62-10.248 16.368-24.018 25.483-38.852 33.621-15.873 6.479-33.416 10.444-53.464 10.444-34.255 0-61.29-10.553-81.25-31.327-20.979-21.832-31.746-52.005-31.746-90.64 0-21.517 2.714-39.894 7.938-55.144 5.22-15.248 14.080-27.663 25.897-37.176 23.48-18.894 49.914-26.522 80.835-26.522 17.954 0 34.255 2.693 48.87 7.934 29.042 10.422 55.142 38.221 58.476 65.582h-60.78c-2.715-6.894-6.645-11.952-11.904-15.458zM140.738 120.589h-68.091v84.375h69.346c13.159 0 24.428-0.835 31.327-5.219 13.578-6.055 20.468-17.333 20.468-33.626 0-39.89-25.272-45.53-53.049-45.53zM362.749 246.946c8.349 9.595 20.057 12.743 35.93 12.743 13.36 0 25.272-3.759 35.502-11.488 8.564-9.815 13.994-20.887 15.043-36.761h-102.347c2.714 14.833 7.505 25.88 15.873 35.507zM72.647 328.195h59.947c16.083 0 27.358-2.51 37.59-5.224 11.484-4.385 17.128-14.203 17.128-29.447 0-13.159-4.175-22.142-12.739-27.362-9.819-4.389-19.637-7.729-33.837-7.729h-68.091v69.762zM460.709 369.964h-126.572v-32.372h126.572v32.372z" />
<glyph unicode="&#xe625;" glyph-name="blogger" data-tags="blogger" d="M378.5 124.399c-0.315-1.553-0.971-3.094-1.872-4.668-1.589-2.784-3.877-6.699-7.476-10.598-3.884-4.209-8.075-6.357-12.155-7.163-2.16-0.437-4.363-0.625-6.538-0.625h-187.605l-2.49-0.315c-0.933 0-1.547 0.043-2.497 0.315-3.413 0.971-8.726 1.862-12.774 5.915-2.49 1.563-4.363 3.435-5.301 4.991-2.49 3.42-4.048 6.23-4.048 8.72 0 0.31 0 0.932 0.31 1.557v17.76c0 1.558 0.346 3.408 1.246 4.991 1.589 2.784 3.648 6.342 7.792 9.658 5.207 4.166 9.355 6.166 12.774 6.538 2.192 0.25 4.054 0.625 6.235 0.625h184.487c3.115-0.625 5.924-1.227 8.411-2.175 4.059-1.541 9.974-4.678 14.027-8.731 2.806-4.041 4.987-7.476 6.23-10.277 0.932-1.558 1.247-3.115 1.247-4.368v-12.154zM135.431 308.885v13.408c0 4.048 1.915 7.136 4.357 11.216 2.229 3.707 9.040 10.592 17.457 12.149 1.557 0.628 3.424 0.933 4.982 0.933h96.297c2.182-0.305 4.363-0.625 6.544-1.553 2.182-0.939 4.363-1.563 6.544-2.496s4.107-2.127 6.23-4.358c4.106-4.32 6.544-8.106 7.483-11.531 0.619-1.563 0.932-3.115 0.932-4.363v-9.658c-0.315-2.188-0.625-4.054-0.932-5.617-1.558-3.739-3.51-8.646-7.483-12.774-3.819-3.973-8.101-6.23-12.774-7.173-2.182-0.928-4.363-0.928-6.544-0.613h-95.048c-4.048 0-8.4 0.971-12.155 2.175-4.037 1.29-9.243 5.989-11.84 9.658-2.697 3.813-4.363 6.55-4.363 9.039 0 0.31 0 0.94 0.315 1.553zM509.694 266.51c-1.243 8.101-14.623 18.481-21.192 19.947-1.851 0.405-3.428 0.304-4.667 0h-40.829c-4.678 0.933-9.082 2.752-12.779 6.23-6.587 6.186-12.155 15.894-12.155 37.084v1.247c0 8.406-1.221 17.76-3.739 27.728-4.961 19.649-15.195 39.015-28.043 56.412-12.704 17.185-33.968 34.272-56.097 45.804-22.123 11.536-40.481 19.009-57.65 19.009h-123.091c-23.686-2.8-44.876-9.968-69.186-23.682-24.304-13.717-48.545-41.478-59.831-64.823-11.462-23.707-19.009-43.916-19.009-64.188v-200.379c0-13.419 2.944-26.459 6.544-39.584 6.059-22.086 18.235-49.697 40.198-71.981 20.424-20.719 44.060-32.053 63.576-38.947 11.35-4.023 22.438-7.172 33.345-8.416h217.517c0.315 0 4.054 0.3 11.221 0.93 14.021 1.231 35.493 7.525 60.763 22.748 24.913 15.007 47.308 40.224 57.341 62.635 9.912 22.154 16.201 41.761 18.697 62.957v141.785c0 0.939-0.312 3.429-0.937 7.483z" />
<glyph unicode="&#xe626;" glyph-name="delicious" data-tags="delicious" d="M-0.025-5.631c0-2.116 0.267-4.252 1.212-5.747 0.768-3.66 3.166-6.497 5.741-9.067 5.898-5.899 9.675-6.351 13.604-6.351h224.614v239.123h-245.172v-217.959zM269.33 236.817h35.368l-35.368 35.368v-35.368zM269.33 370.134l132.413-133.316h34.762l-167.174 168.077v-34.762zM269.33 305.135l66.812-68.317h34.762l-101.574 102.18v-33.863zM269.33 437.548l201.335-200.73h33.252l-234.588 235.496v-34.767zM301.675 473.521l209.803-211.314v38.999l-172.92 172.92-36.882-0.606zM373.325 474.128l138.762-139.966v35.974l-102.788 103.387-35.974 0.606zM444.667 474.128l67.413-70.135v34.161l-34.161 35.368-33.252 0.606zM499.687 474.735l12.394-13.603v13.603h-12.394z" />
<glyph unicode="&#xe627;" glyph-name="500" data-tags="500" d="M245.113 231.363c6.489 0 12.355-1.446 18.086-3.93 6.064-2.627 11.516-5.739 17.495-10.027 5.82-4.171 10.858-8.99 15.53-13.76 4.963-5.064 9.636-9.243 13.372-13.372-1.771-2.159-3.786-4.276-5.899-6.486-2.214-2.315-4.196-4.845-6.49-7.076-4.786-4.656-9.905-8.632-15.332-12.19-5.979-3.918-11.17-6.768-17.301-9.238-6.060-2.446-11.993-3.538-17.694-3.538-11.988 0-21.422 3.365-27.911 10.812-6.882 7.894-10.028 17.298-10.028 28.113 0 21.231 14.151 40.692 36.172 40.692zM372.894 196.957c2.164 2.164 4.457 4.204 6.684 6.688 4.659 5.187 9.598 9.678 14.94 13.76 5.469 4.175 10.454 7.4 16.517 10.028 5.731 2.484 11.596 3.93 18.086 3.93 23.784 0 38.335-18.676 38.335-40.106 0-22.805-13.762-39.512-36.762-39.512-13.372 0-25.162 4.921-35.387 11.993-5.697 3.938-10.699 8.358-15.332 12.579-4.216 3.841-8.652 8.652-13.173 13.958 1.767 2.163 3.935 4.524 6.094 6.683zM55.211 106.921c10.858-2.99 21.611-4.428 33.423-4.714 12.38-0.303 23.799 1.919 34.203 6.094 21.447 8.603 37.745 23.981 47.379 45.411 0 0.199 0 0.392 0.194 0.392 0.198 0 0.198 0.198 0.198 0.392 7.076-19.46 20.67-33.962 41.873-43.837 10.458-4.87 22.214-6.882 34.797-6.882 10.028 0 19.376 1.796 28.113 4.916 7.784 2.784 15.788 6.397 23.394 11.6 7.333 5.018 14.084 10.681 20.046 16.905 3.087 3.217 6.098 6.486 9.438 9.829 3.344 3.339 6.49 6.683 9.829 10.221 2.947-3.339 6.195-6.582 9.438-9.829 3.247-3.243 6.161-6.815 9.636-10.221 6.751-6.62 13.65-12.047 21.228-16.905 7.759-4.976 15.649-8.695 23.791-11.6 8.387-2.994 17.496-4.916 27.717-4.916 12.385 0 23.793 2.349 34.208 6.882 10.814 4.705 18.736 10.732 25.95 19.267 6.747 7.978 11.915 17.394 15.921 28.308 3.863 10.521 6.092 22.021 6.092 34.599 0 12.389-2.138 23.724-6.092 34.207-3.911 10.357-9.175 19.343-15.921 26.933-13.702 15.413-33.616 24.968-59.767 24.968-10.419 0-19.853-1.573-28.109-4.912-8.454-2.56-16.441-6.789-24.183-12.389-14.274-10.323-28.11-25.161-39.908-39.512-6.287 7.667-12.87 14.847-19.267 21.426-13.46 13.864-28.615 24.833-45.014 30.474-8.771 3.015-18.284 4.913-28.703 4.913-12.385 0-23.871-2.412-34.207-6.882-10.12-4.377-18.086-10.812-25.752-18.478-6.684-8.058-11.798-16.904-15.332-26.541-3.15 6.882-6.6 12.617-11.6 18.482-12.111 14.198-30.276 23.893-54.456 23.787-19.857-0.089-32.634-4.719-46.983-18.086l-0.392 0.392 9.239 54.257h99.082v39.908h-133.685l-23.782-132.108h43.838c10.222 13.368 19.465 19.267 36.763 19.267 6.684 0 12.372-1.206 17.302-3.538 10.011-4.744 17.099-12.974 21.227-23.786 1.573-5.702 2.362-11.601 2.362-17.694s-0.809-12.051-2.754-17.301c-1.991-5.372-4.318-10.424-8.058-14.548-7.856-8.652-17.302-13.958-30.078-13.958-11.402 0-20.299 3.302-27.127 9.635-6.743 6.25-11.014 14.94-12.389 26.144h-48.362c0-12.776 2.767-23.673 7.67-33.026 9.842-18.765 27.759-32.478 47.574-37.943z" />
<glyph unicode="&#xe628;" glyph-name="disporia" data-tags="disporia" d="M197.304 289.069c-10.581 17.051-22.667 25.474-34.977 29.577-12.304 4.103-26.558 3.886-41.237 3.886-40.589 0-70.383-16.842-90.68-42.964-20.291-26.122-30.438-61.315-30.438-98.45 0-38.213 10.212-74.219 30.225-100.825 19.932-26.504 50.521-43.83 92.189-43.83 15.546 0 28.498 1.296 40.806 5.829 12.304 4.534 23.53 13.171 34.111 27.855v-27.419h86.576v368.752h-86.577v-122.409zM194.068 115.267c-10.151-16.406-26.34-27.418-51.17-27.418-23.534 0-40.157 11.443-51.171 27.849-11.007 16.406-15.758 38.648-15.758 60.019 0 23.103 4.534 44.692 14.898 61.103 10.364 16.406 27.201 26.988 52.031 26.988s40.589-10.581 50.734-26.775c10.15-16.194 14.249-37.778 14.249-60.237 0-23.098-3.667-45.122-13.814-61.529zM512.086 337.211l-14.683 39.292-61.314-22.455v57.43h-43.395v-57.43l-54.841 22.455-10.577-39.292 59.157-20.296-37.569-50.086 34.115-25.042 35.837 52.462 38-52.462 33.462 25.043-37.995 50.086 59.802 20.296z" />
<glyph unicode="&#xe629;" glyph-name="dribbble" data-tags="dribbble" d="M23.994 224.54c0 63.421 26.050 121.751 67.953 163.653 41.623 41.624 99.099 67.674 163.371 67.674 64.276 0 122.389-25.979 164.507-67.674 42.261-41.834 68.234-100.231 68.234-163.653 0-64.276-26.124-122.246-68.235-164.228-42.256-42.111-100.231-68.233-164.507-68.233-64.272 0-121.609 26.192-163.371 68.233-41.763 42.047-67.953 99.952-67.953 164.228zM142.348 66.264c34.824-22.368 72.2-35.39 112.972-35.39 21.517 0 41.333 2.267 61.445 9.34-3.682 48.699-14.159 96.27-28.882 140.154-60.31-20.102-110.145-59.459-145.536-114.102zM325.537 190.276c13.875-43.317 22.369-87.206 28.317-132.791 47.284 27.187 80.123 74.18 91.162 128.833-24.909 5.942-46.145 8.773-69.649 8.773-16.13 0-33.688-1.695-49.829-4.817zM62.785 214.625c0.852-46.435 19.818-88.622 50.681-121.18 39.356 58.89 95.986 101.077 161.676 123.445-4.533 8.779-8.499 19.254-11.609 28.033-58.044-20.103-114.673-31.427-173.852-31.427-4.245 0-8.773 0.295-13.022 0.565-4.533 0.295-9.064 0.565-13.875 0.565zM298.919 259.366c5.387-11.044 9.346-20.953 13.88-31.993 21.515 3.681 42.471 7.643 62.572 7.643 23.779 0 48.42-4.533 73.62-10.476 0 39.358-12.465 75.88-34.26 108.44-35.395-30.297-75.039-55.778-115.812-73.616zM63.35 252.851h26.33c53.231 0 105.328 8.778 157.144 28.033-21.517 39.356-47.568 77.582-80.128 114.673-54.083-28.596-92.304-80.129-103.349-142.704zM205.488 409.997c30.294-37.096 56.058-75.601 77.298-115.237 37.375 16.703 72.766 39.358 106.459 68.519-35.39 34.824-82.953 53.798-133.923 53.798-16.706 0-33.13-2.267-49.829-7.079z" />
<glyph unicode="&#xe62a;" glyph-name="ello" data-tags="ello" d="M491.483 223.43c0 130.334-105.664 235.994-235.998 235.994-130.34 0-235.995-105.659-235.995-235.994 0-130.338 105.653-235.995 235.995-235.995 130.332 0 235.998 105.656 235.998 235.995zM255.486 81.832c-64.517 0-120.845 43.668-136.97 106.204-1.859 7.207 2.48 14.568 9.686 16.428 7.22 1.865 14.565-2.484 16.423-9.695 13.060-50.616 58.641-85.97 110.859-85.97 52.208 0 97.797 35.353 110.845 85.97 1.859 7.211 9.197 11.57 16.424 9.695 7.214-1.859 11.553-9.221 9.688-16.428-16.126-62.535-72.445-106.204-136.96-106.204z" />
<glyph unicode="&#xe62b;" glyph-name="email" data-tags="email" d="M34.685 355.028l126.437-126.437-126.437-126.752v253.19zM448.075 383.053l-153.829-153.187c-12.448-12.395-21.024-19.748-41.087-19.748h-3.181c-17.519 0-26.733 11.806-36.625 21.657l-151.915 151.277h386.637zM474.185 99.29l-127.074 127.39 127.073 127.071v-254.461zM58.253 71.262l131.533 131.214c20.063-19.11 35.35-34.716 62.102-34.716h1.91c26.749 0 41.721 11.148 63.374 32.805l129.624-129.304h-388.543zM308.342 30.179c0.368 0 0.731 0.017 1.103 0.017 0.198 0 0.38-0.017 0.573-0.017h202.064v387.589h-512.111l0.638-387.589h307.733z" />
<glyph unicode="&#xe62c;" glyph-name="four-square" data-tags="four-square" d="M308.817 123.441c-21.082-17.111-42.090-34.317-62.999-51.372-1.7-1.387-3.512-1.971-5.048-1.971-1.976 0-3.676 0.937-5.708 2.857-14.213 13.445-28.533 26.776-42.802 39.725-14.268 12.957-28.58 26.314-43.022 39.519-5.975 5.461-11.178 3.62-17.125 2.627-5.91-0.984-11.632-1.312-17.341-1.312-5.704 0-11.412 0.45-16.9 1.312-11.192 1.765-21.288 5.273-30.733 10.317-19.311 10.32-35.093 27.142-43.898 48.95-5.024 12.438-7.244 25.025-7.244 37.543 0 2.406 0.033 5.038 0.221 7.455 1.134 14.924 5.236 28.556 12.293 41.050 14.015 24.82 38.873 43.527 69.363 48.29 11.66 1.827 24.365 1.985 37.754-0.876 12.292-2.627 23.513-7.212 33.805-13.829 20.436-13.136 35.661-34.658 41.486-60.368 1.639-7.216 2.417-14.479 2.417-21.724 0-12.292-2.482-24.346-7.024-36.227-1.167-3.043-1.124-5.938 0.44-8.555 5.9-9.895 11.899-19.509 17.776-29.197 5.976-9.843 11.857-19.757 17.781-29.629 0-0.225 0.66-1.316 2.196-3.072 42.807 45.218 85.332 90.263 127.313 134.988 41.87 44.613 84.292 89.78 127.092 135.218 0.661-3.732 0.883-5.708 0.883-8.115v-122.711c0-3.733-1.582-6.753-4.829-9.441-20.678-17.069-41.051-33.796-61.464-50.266-20.413-16.455-41.013-33.188-61.683-50.041-21.041-17.168-42.155-34.238-62.999-51.147zM410.45 158.337c-5.048 5.048-9.876 10.096-14.489 15.365 1.1 1.541 1.756 2.421 2.416 2.641 35.777 29.189 71.925 58.48 108.654 87.139 3.221 2.511 5.050 5.714 5.050 9.876v168.584c0 1.096 0 1.981-0.222 3.072-0.216 1.096-0.216 2.197-0.216 3.732-3.295-2.416-4.659-3.46-6.368-5.269l-74.193-78.363c-17.828-18.826-35.121-37.538-52.463-55.755s-34.705-37.065-52.682-55.749c-4.196-4.37-6.209-4.673-10.752 0-18.726 19.247-37.317 37.749-56.635 57.065-2.636 1.976-4.393 3.512-8.56 7.679-8.56-10.317-16.9-19.752-24.805-28.312-4.608 6.804-8.701 13.655-12.732 20.192-4.088 6.64-8.659 13.061-13.828 18.877-26.004 29.305-55.755 37.317-82.752 37.317-4.613 0-9.418-0.392-14.269-0.88-43.532-4.309-76.229-33.062-91.71-67.514-1.849-11.548-4.87-22.207-9.098-32.045-0.529-4.211-0.825-8.419-0.825-12.601 0-8.13 1.002-16.666 2.631-25.249 5.175-27.194 19.374-48.66 41.050-66.066 17.398-13.983 36.461-22.426 57.511-23.925 9.698-0.699 15.145-4.398 21.073-10.317l124.022-124.033c0.876-0.867 1.756-1.756 2.852-2.412 0.881-0.873 1.536-1.534 2.196-2.19 26.561 26.561 53.123 53.118 79.464 79.679 26.121 26.341 52.678 52.898 79.68 79.459z" />
<glyph unicode="&#xe62d;" glyph-name="github" data-tags="github" d="M337.69-7.851c90.942 36.108 144.796 102.211 156.688 199.637 11.773 96.545-36.448 188.579-120.702 235.818-116.423 65.263-264.174 22.779-328.247-94.39-51.39-93.981-34.468-210.243 41.549-285.789 25.719-25.563 55.631-44.375 89.978-56.056 10.206-3.467 18.499-0.601 18.969 7.639 0.882 15.453 0.256 30.987 0.256 47.108-4.698-0.687-7.963-1.4-11.254-1.603-33.698-2.055-61.008 3.216-73.775 38.454-3.764 10.401-14.791 18.186-22.553 27.11-3.038 3.49-6.263 6.815-10.079 10.958 10.371 5.12 19.142 4.251 25.658-0.8 9.81-7.607 19.398-16.213 26.749-26.127 17.077-23.050 38.463-24.219 62.194-15.512 2.048 0.748 3.874 3.394 4.825 5.586 3.917 9.010 7.458 18.177 11.4 27.944-2.634 0.451-6.438 1.159-10.258 1.755-24.154 3.778-45.917 12.452-65.024 28.353-31.73 26.409-44.596 108.673-11.358 146.631 2.521 2.878 3.973 8.719 2.947 12.339-4.737 16.708-2.934 32.773 1.486 49.203 2.386 8.858 7.406 11.005 14.631 8.162 16.021-6.306 31.634-13.669 47.621-20.064 4.512-1.803 10.102-3.333 14.609-2.334 34.76 7.707 69.323 7.767 104.104 0.061 4.781-1.056 10.714 0.661 15.526 2.587 15.987 6.389 31.564 13.814 47.591 20.099 7.046 2.763 11.623-0.396 13.884-8.254 4.806-16.69 6.741-33.195 1.596-50.177-0.825-2.738-0.687-7.093 0.964-9.058 20.216-24.045 23.65-52.163 20.529-81.919-4.212-40.166-21.902-71.223-61.156-86.197-14.49-5.529-29.964-8.458-45.852-12.808 12.339-13.091 14.582-29.157 14.782-45.717 0.235-19.338 0-38.685 0.082-58.027 0.065-15.738 6.755-20.523 21.641-14.61z" />
<glyph unicode="&#xe62e;" glyph-name="houzz" data-tags="houzz" d="M256.43-38.138v167.942l146.289 87.038v-167.942l-146.289-87.039zM109.33 42.365l147.099 87.034-147.099 82.952v-169.986zM263.379 151.055l114.822 66.196-114.822 61.291v-127.487zM131.396 213.163l116.868-61.704v127.080l-116.868-65.377zM255.614 301.016v-0.407l-146.285-87.038v173.258l146.285 87.034v-172.844l147.102 86.218v-169.987l-147.101 83.767z" />
<glyph unicode="&#xe62f;" glyph-name="instagram" data-tags="instagram" horiz-adv-x="503" d="M144.586 475.252c70.909 0 141.818 0 212.727 0 1.449-3.303 5.541-1.51 7.538-1.675 40.894-3.368 73.375-17.452 96.313-40.2 23.188-23.279 35.087-54.593 39.363-97.988 0.185-1.875-1.588-5.756 1.675-6.7 0-69.792 0-139.584 0-209.378-3.327-1.387-1.467-5.348-1.675-7.536-7.545-79.224-49.427-129.12-129.814-136.514-2.702-0.248-5.799-0.583-8.375-0.837-1.873-0.185-5.584 1.626-6.7-1.675-69.793 0-139.585 0-209.378 0-1.135 3.264-5.618 1.492-7.537 1.675-40.938 3.898-74.443 16.3-97.151 39.363-22.735 23.475-36.644 53.824-40.2 97.15-0.153 1.863 1.567 5.764-1.675 6.7 0 70.909 0 141.818 0 212.728 3.241 0.936 1.522 4.838 1.675 6.7 6.867 83.64 56.036 132.74 142.377 136.514 0.653 0.185 0.973 0.701 0.838 1.675zM100.198 418.301c-46.541-19.58-54.438-64.111-54.438-130.651 0-27.475-0.837-56.436-0.837-78.726 0-49.799-2.216-110.999 15.075-143.215 5.57-10.382 15.753-20.685 25.963-27.638 22.415-15.262 50.256-17.548 86.263-19.263 36.149-1.722 73.207 0 106.363 0 17.99 0 36.456 0.106 51.925 0.837 18.486 0.873 33.959 0.264 49.413 3.349 28.948 5.781 50.063 21.045 61.975 44.387 17.279 33.858 14.238 95.762 14.238 152.428 0 26.406 0.483 55.192-0.837 82.914-0.729 15.308-0.010 28.474-1.675 40.201-4.493 31.643-16.663 52.505-37.688 67-22.092 15.232-51.183 18.136-87.101 19.263-33.38 1.048-76.096 1.482-107.201 0-49.004-2.334-89.168 2.689-121.439-10.888zM381.601 388.151c14.661 1.618 28.855-8.257 32.663-19.264 7.022-20.301-8.805-41.465-28.476-41.875-16.675-0.348-32.772 12.286-31.825 32.663 0.771 16.6 11.42 26.688 27.638 28.476zM245.924 352.976c40.859 1.793 73.999-14.536 96.314-36.85 23.924-23.924 44.555-61.657 36.85-113.064-6.329-42.231-33.692-74.741-67-92.964-11.24-6.15-25.029-12.106-38.525-14.238-43.405-6.854-83.207 8.647-108.038 30.988-24.502 22.044-44.178 51.719-44.388 96.314-0.27 57.257 32.605 97.612 72.863 117.251 15.012 7.324 32.614 11.715 51.925 12.563zM183.949 274.25c-7.686-10.196-19.078-35.542-15.913-61.976 2.862-23.889 19.802-48.56 40.201-60.301 56.875-32.734 134 11.243 125.626 82.914-1.454 12.445-6.433 23.727-14.238 35.175-15.224 22.327-41.163 41.565-81.239 36.013-24.874-3.446-42.794-16.379-54.438-31.826z" />
<glyph unicode="&#xe630;" glyph-name="itunes" data-tags="itunes" d="M477.039 353.082c-22.289 37.917-53.592 69.535-91.688 91.683-38.087 22.144-82.154 35.205-129.326 35.205-46.959 0-91.020-12.62-129.107-34.987-38.091-22.368-69.316-54.035-91.678-92.125-22.367-38.091-34.991-81.941-34.991-129.107s12.624-91.24 34.991-129.107c22.363-37.868 53.636-69.457 91.678-91.683 38.13-22.284 81.939-34.991 129.107-34.991 78.332 0.005 142.938 37.084 180.932 75.073 46.058 46.063 74.849 110.283 74.849 181.15 0 47.167-12.536 91.065-34.766 128.888zM421.452 58.993c-42.733-42.738-101.421-69.317-165.426-69.317-64.001 0-122.134 26.685-164.765 69.317-42.627 42.627-69.758 100.758-69.758 164.76s26.577 122.245 69.316 164.983c42.526 42.519 101.207 68.874 165.208 68.874 64.006 0 122.346-26.241 164.988-68.654 42.632-42.408 69.081-100.758 69.081-164.76s-26.118-122.683-68.644-165.203zM154.606 65.411c-13.952-0.209-27.316 3.465-38.762 15.505-5.606 5.898-8.857 12.399-9.514 20.148-0.229 1.111-0.229 2.219-0.229 3.324 0 12.624 7.548 28.11 21.034 37.206 6.881 4.632 14.4 7.966 22.815 9.967 4.657 1.1 9.085 1.771 13.514 1.771 5.534 0 11.296-0.88 16.824-2.661 0.667-0.215 1.333-0.443 2.214-0.443 0.667 0 1.771-0.219 2.881-0.886v191.336c0 4.21 0.677 6.594 5.315 7.752 10.419 2.603 20.552 5.669 30.568 8.857 19.886 6.336 39.18 11.388 57.791 14.176 18.366 2.75 36.548 5.684 54.7 6.862 9.091 0.589 17.938 1.11 26.567 1.771 2.891 0.224 5.773 0.433 8.644 0.667 2.662 0.21 5.757 0.443 9.085 0.662v-119.363c0-36.981 0.267-74.406 0.438-112.278 0.048-9.743-2.584-18.212-8.196-25.467-11.669-15.106-26.796-23.078-45.177-23.916-1.104-0.049-2.433 0-3.543 0-10.628 0-21.656 1.392-33.224 9.967-8.142 6.039-13.056 13.728-14.827 23.472-0.443 2.439-0.663 4.653-0.443 7.086 0 6.866 1.825 13.615 5.757 19.709 9.801 15.17 24.153 23.823 42.519 26.352 7.32 1.012 10.853 1.329 14.834 1.111 3.995-0.224 7.757-1.329 15.505-3.767v107.85c-47.829-2.882-94.12-11.52-139.955-25.467v-152.801c0-20.153-13.544-33.833-28.572-41.858-7.787-4.152-16.386-6.438-25.91-6.642h-2.653z" />
<glyph unicode="&#xe631;" glyph-name="myspace" data-tags="myspace" d="M429.094 261.433c-18.656 16.583-42.637 25.76-66.624 25.76h-1.183c-10.656 0-20.139-1.461-28.128-4.442-16.593-6.195-30.2-13.026-42.342-22.799l-4.147 7.106c-2.687 4.611-7.002 9.575-12.435 15.103-10.857 11.055-27.835 22.209-49.446 22.209-10.068 0-19.001-1.344-26.356-4.147-15.151-5.784-25.167-12.736-33.16-21.912-3.851 6.219-8.681 11.75-13.92 16.877-9.269 9.089-21.906 16.877-40.566 16.877-16.282 0-32.276-4.443-44.416-17.467-12.14-13.031-19.834-34.348-19.834-66.624v-92.379h98.008v-48.267h111.035v-95.341h209.932v197.792c-3.846 30.798-17.767 55.072-36.418 71.654zM361.287 301.998c18.656 0 37.607 8.885 52.113 22.509 14.51 13.618 24.278 32.863 24.278 53.888s-9.177 40.566-23.392 54.778c-14.209 14.21-33.164 22.8-52.404 22.8-21.322 0-40.863-8.589-54.778-22.8-13.92-14.215-22.509-33.755-22.509-54.778s8.589-40.269 22.509-53.888c13.914-13.625 33.16-22.509 54.185-22.509zM221.53 314.732c14.51 0 28.501 6.733 39.085 17.467 10.439 10.591 16.877 24.877 16.877 39.384 0 13.025-6.136 27.017-15.694 37.601-9.69 10.735-23.392 18.362-38.79 18.362-15.393 0-29.534-5.998-39.97-15.991-10.595-10.139-17.177-23.982-17.177-39.381v-1.183c0-15.399 6.809-29.313 16.877-39.674 10.067-10.366 24.28-16.582 38.79-16.582zM110.787 321.836c25.76 0 44.116 21.024 44.116 44.416v2.369c0 25.76-23.092 44.712-47.965 44.712-11.844 0-23.171-5.864-30.502-15.103-7.47-9.415-11.843-21.613-11.843-33.755 0-23.386 22.208-42.637 46.191-42.637z" />
<glyph unicode="&#xe632;" glyph-name="path" data-tags="path" d="M403.392 87.084c-6.389 0-13.024 0.351-19.43 1.022-13.024 1.373-24.538 4.092-34.507 8.693 0.255-8.18 0.255-16.105 0.255-24.030 0-3.832 0.065-7.412 0-11.245-0.188-11.505-0.951-22.25-2.557-32.464-3.248-20.719-9.202-37.832-21.214-49.084h122.957c20.192 5.886 31.445 19.173 39.366 37.327v91.516c-14.577-10.482-39.896-18.25-65.7-20.711-6.406-0.611-12.781-1.022-19.17-1.022zM168.983 386.683c40.327 37.898 98.16 59.813 164.623 59.813 63.138 0 111.966-16.867 154.658-41.411v23.517c-6.391 20.198-19.428 33.492-39.366 39.368h-386.253c-20.198-6.389-33.231-19.424-38.855-39.368v-409.77c5.877-19.94 18.917-32.971 38.855-38.857h138.548c-0.255 3.834-0.255 7.674-0.255 11.505 0 2.046-0.066 4.093 0 6.139 0.189 6.134 0.311 12.266 0.508 18.401 0.061 1.788 0 3.837 0 5.882 0 8.18-0.255 18.401-2.298 28.372 3.833-1.789 8.18-4.087 12.525-6.644s8.765-4.681 13.289-6.644c9.029-3.918 18.768-6.081 29.144-0.514 10.589 5.685 13.568 29.394 13.802 56.749 0.019 2.303 0 4.601 0 6.904 0 11.505-0.33 23.257-1.022 35.021-0.839 14.311-1.276 26.329-1.276 36.043 0 28.631-0.067 55.473-0.259 80.266-0.062 8.438 0 16.105 0 23.007 0 14.062 0 25.82 0.259 35.275 6.136-0.255 12.267-0.508 18.656-0.508 7.925 0 15.85 0.239 24.289 0.762 3.832 0.244 7.668 0.259 11.5 0.259 10.482 0 20.452-0.768 29.399-2.557v-146.474c12.78-3.832 25.561-5.623 38.087-5.623 2.817 0 5.623 0.056 8.438 0.255 15.332 1.079 29.429 4.529 42.179 10.482 25.596 11.941 44.738 32.719 50.103 61.35v42.946c-5.881 35.53-28.889 61.349-60.585 77.707s-64.419 19.938-88.704 19.938c-6.899 0-13.788-0.391-20.706-1.022-38.075-3.461-73.717-17.279-97.646-41.666-15.953-16.258-26.786-43.464-29.652-71.064-0.452-4.351-0.768-8.438-0.768-12.525 0-18.662 3.832-42.692 22.494-59.305-10.992-7.671-21.54-16.039-30.934-25.051-9.523-9.135-19.938-17.894-31.183-25.82-12.525 14.062-21.626 27.147-28.631 42.18-7.056 15.135-11.042 32.205-12.273 53.683-0.305 5.363-0.508 10.476-0.508 15.592 0 53.429 19.364 105.389 59.813 143.41z" />
<glyph unicode="&#xe633;" glyph-name="paypal" data-tags="paypal" d="M494.778 330.543c-4.877 17.918-12.239 32.72-22.765 44.675 5.404-11.098 8.872-23.617 10.242-37.562 0.334-3.415 0.285-6.831 0.285-10.529 0-11.098-1.577-23.301-4.27-36.425-9.264-45.218-32.224-81.581-64.024-106.427-31.94-24.954-71.713-39.272-115.246-39.272h-91.062l-31.305-146.268h-106.712l-5.972-22.763h127.764l30.168 145.132h92.198c42.97 0 82.738 13.743 114.394 38.697 31.517 24.846 54.773 61.219 65.159 106.995 2.981 13.127 4.558 25.327 4.558 36.709 0 9.678-1.173 18.776-3.413 27.037zM173.501 175.168h90.494c43.26 0 83.307 14.317 114.962 39.272 31.522 24.846 55.365 61.152 64.598 106.427 2.717 13.341 3.983 25.612 3.983 36.709 0 22.48-5.544 52.782-29.31 77.685-23.755 24.898-58.046 36.709-90.777 36.709h-216.837l-96.751-442.494h127.77l31.868 145.693zM218.467 381.476h62.888c21.911 0 37.278-13.087 43.249-30.163 0.858-3.982 1.385-7.972 1.995-12.234 0.243-1.716 0.284-3.415 0.284-5.409 0-2.556-0.284-4.837-0.568-7.399-1.137-0.852-1.711-2.841-1.711-5.404-4.837-16.219-14.445-30.803-26.748-41.828-12.457-11.171-28.168-17.928-43.823-18.786-0.569-0.284-0.852-0.284-1.136-0.284h-0.285c-0.285 0.284-0.569 0.284-1.42 0.284h-60.046l27.321 121.224z" />
<glyph unicode="&#xe634;" glyph-name="phone" data-tags="phone" d="M387.278-31.719c35.233 2.001 67.27 15.435 89.458 35.984 22.041 20.428 33.983 46.976 33.983 74.216 0 1.498 0.075 2.996 0 4.495-1.168 23.243-10.837 38.387-32.73 43.981-13.338 3.406-26.99 7-40.984 9.249s-27.454 5.853-40.483 10.246c-9.964 3.353-19.239 4.99-27.737 4.99-3.748 0-7.212-0.379-10.497-0.991-11.221-2.137-21.25-9.425-30.231-21.494-8.508-11.43-17.497-16.74-26.74-16.74s-19.532 3.188-30.738 9.745c-47.76 27.923-85.252 64.69-115.196 110.947-6.291 9.719-10.987 17.746-13.994 23.483-2.74 5.256-4.008 10.251-4.249 14.75-0.011 0.245-0.032 0.752 0 1.242 0.709 10.006 8.3 18.951 23.989 36.741 3.049 3.448 5.997 6.738 9.244 9.995 3.001 2.99 5.678 6.291 7.996 9.995 4.43 7.042 6.2 14.975 2.25 25.988-11.798 32.956-21.323 64.264-31.735 96.954-7.581 23.787-24.24 28.222-43.981 27.988-0.746-0.011-1.749 0.026-2.746 0-23.745-0.719-47.232-11.75-65.725-29.235-18.488-17.502-32.001-40.728-33.984-65.48-0.507-6.488-0.736-12.992-0.736-19.49 0-33.228 7.048-65.805 21.729-97.199 60.794-130.042 157.284-224.219 289.118-281.868 11.611-5.077 23.989-8.246 36.736-10.495s25.236-4.996 37.983-7.997z" />
</font>
</defs>
</svg>
